Code:
Format                      : Matroska
Format version              : Version 4 / Version 2
File size                   : 5.53 GiB
Duration                    : 2 h 29 min
Overall bit rate            : 5 289 kb/s
Encoded date                : UTC 2018-07-30 15:44:51
Writing application         : mkvmerge v7.5.0 ('Glass Culture') 32bit built on Jan  4 2015 16:37:25
Writing library             : libebml v1.3.1 + libmatroska v1.4.2

Video
ID                          : 1
Format                      : AVC
Format/Info                 : Advanced Video Codec
Format profile              : High@L4
Format settings, CABAC      : Yes
Format settings, RefFrames  : 5 frames
Codec ID                    : V_MPEG4/ISO/AVC
Duration                    : 2 h 29 min
Bit rate                    : 4 520 kb/s
Width                       : 1 920 pixels
Height                      : 804 pixels
Display aspect ratio        : 2.40:1
Frame rate mode             : Constant
Frame rate                  : 23.976 FPS
Color space                 : YUV
Chroma subsampling          : 4:2:0
Bit depth                   : 8 bits
Scan type                   : Progressive
Bits/(Pixel*Frame)          : 0.122
Stream size                 : 4.73 GiB (85%)
Language                    : English
Default                     : Yes
Forced                      : Yes
Color range                 : Limited
Color primaries             : BT.709
Transfer characteristics    : BT.709
Matrix coefficients         : BT.709

Audio #1
ID                          : 2
Format                      : MPEG Audio
Format version              : Version 1
Format profile              : Layer 3
Mode                        : Joint stereo
Mode extension              : MS Stereo
Codec ID                    : A_MPEG/L3
Codec ID/Hint               : MP3
Duration                    : 2 h 29 min
Bit rate mode               : Constant
Bit rate                    : 128 kb/s
Channel(s)                  : 2 channels
Sampling rate               : 48.0 kHz
Frame rate                  : 41.667 FPS (1152 SPF)
Compression mode            : Lossy
Delay relative to video     : -43 ms
Stream size                 : 137 MiB (2%)
Writing library             : LAME3.99r
Encoding settings           : -m j -V 4 -q 3 -lowpass 17 -b 128
Language                    : Tamil
Default                     : Yes
Forced                      : Yes

Audio #2
ID                          : 3
Format                      : MPEG Audio
Format version              : Version 1
Format profile              : Layer 3
Mode                        : Joint stereo
Mode extension              : MS Stereo
Codec ID                    : A_MPEG/L3
Codec ID/Hint               : MP3
Duration                    : 2 h 29 min
Bit rate mode               : Constant
Bit rate                    : 128 kb/s
Channel(s)                  : 2 channels
Sampling rate               : 48.0 kHz
Frame rate                  : 41.667 FPS (1152 SPF)
Compression mode            : Lossy
Delay relative to video     : -43 ms
Stream size                 : 137 MiB (2%)
Writing library             : LAME3.99r
Encoding settings           : -m j -V 4 -q 3 -lowpass 17 -b 128
Language                    : Telugu
Default                     : No
Forced                      : No

Audio #3
ID                          : 4
Format                      : MPEG Audio
Format version              : Version 1
Format profile              : Layer 3
Mode                        : Joint stereo
Mode extension              : MS Stereo
Codec ID                    : A_MPEG/L3
Codec ID/Hint               : MP3
Duration                    : 2 h 29 min
Bit rate mode               : Constant
Bit rate                    : 128 kb/s
Channel(s)                  : 2 channels
Sampling rate               : 48.0 kHz
Frame rate                  : 41.667 FPS (1152 SPF)
Compression mode            : Lossy
Delay relative to video     : -43 ms
Stream size                 : 137 MiB (2%)
Writing library             : LAME3.99r
Encoding settings           : -m j -V 4 -q 3 -lowpass 17 -b 128
Language                    : Hindi
Default                     : No
Forced                      : No

Audio #4
ID                          : 5
Format                      : AC-3
Format/Info                 : Audio Coding 3
Format settings, Endianness : Big
Codec ID                    : A_AC3
Duration                    : 2 h 29 min
Bit rate mode               : Constant
Bit rate                    : 384 kb/s
Channel(s)                  : 6 channels
Channel positions           : Front: L C R, Side: L R, LFE
Sampling rate               : 48.0 kHz
Frame rate                  : 31.250 FPS (1536 SPF)
Bit depth                   : 16 bits
Compression mode            : Lossy
Delay relative to video     : -43 ms
Stream size                 : 410 MiB (7%)
Language                    : English
Service kind                : Complete Main
Default                     : No
Forced                      : Yes


SINGLE DIRECT FAST LINKS

Code:
http://www.heroupload.us/1d6614246136f19c/Avengers.Infinity.War.2018.1080p.HD-AVC.Line.Audios.Tamil+Telugu+Hindi+English.mkv
1GB LINKS
Code:
http://www.heroupload.us/ccb11d3ed5414bc4/Avengers.Infinity.War.2018.1080p.HD-AVC.Line.Audios.Tamil+Telugu+Hindi+English.part1.rar
http://www.heroupload.us/7af83507c6a1a4a1/Avengers.Infinity.War.2018.1080p.HD-AVC.Line.Audios.Tamil+Telugu+Hindi+English.part2.rar
http://www.heroupload.us/8b1c55070e7cc3b1/Avengers.Infinity.War.2018.1080p.HD-AVC.Line.Audios.Tamil+Telugu+Hindi+English.part3.rar
http://www.heroupload.us/c6e7f3874a0f5f4b/Avengers.Infinity.War.2018.1080p.HD-AVC.Line.Audios.Tamil+Telugu+Hindi+English.part4.rar
http://www.heroupload.us/4b4ed4890f29cb85/Avengers.Infinity.War.2018.1080p.HD-AVC.Line.Audios.Tamil+Telugu+Hindi+English.part5.rar
http://www.heroupload.us/589ad9a69ec6944d/Avengers.Infinity.War.2018.1080p.HD-AVC.Line.Audios.Tamil+Telugu+Hindi+English.part6.rar
Code:
http://filefloater.com/1K10/Avengers.Infinity.War.2018.1080p.HD-AVC.Line.Audios.Tamil+Telugu+Hindi+English.part1.rar
http://filefloater.com/1K11/Avengers.Infinity.War.2018.1080p.HD-AVC.Line.Audios.Tamil+Telugu+Hindi+English.part2.rar
http://filefloater.com/1K12/Avengers.Infinity.War.2018.1080p.HD-AVC.Line.Audios.Tamil+Telugu+Hindi+English.part3.rar
http://filefloater.com/1K13/Avengers.Infinity.War.2018.1080p.HD-AVC.Line.Audios.Tamil+Telugu+Hindi+English.part4.rar
http://filefloater.com/1K14/Avengers.Infinity.War.2018.1080p.HD-AVC.Line.Audios.Tamil+Telugu+Hindi+English.part5.rar
http://filefloater.com/1K15/Avengers.Infinity.War.2018.1080p.HD-AVC.Line.Audios.Tamil+Telugu+Hindi+English.part6.rar
Buy Premium From My Links & Support Me