PDA

View Full Version : Drushya Kavyam (2016) Telugu - 1080p - WEB-HD - x264 - AAC - TMV



wroser
03-03-2017, 08:08 PM
http://i.imgur.com/fcTgbjY.jpg





General
Format : MPEG-4
Format profile : Base Media
Codec ID : isom (isom/iso2/avc1/mp41)
File size : 2.56 GiB
Duration : 2 h 11 min
Overall bit rate : 2 787 kb/s
Season : 1
Part : 1
ContentType : Short Film
Writing application : Lavf57.41.100

Video
ID : 1
Format : AVC
Format/Info : Advanced Video Codec
Format profile : High@L4.1
Format settings, CABAC : Yes
Format settings, ReFrames : 4 frames
Codec ID : avc1
Codec ID/Info : Advanced Video Coding
Duration : 2 h 11 min
Bit rate : 2 655 kb/s
Nominal bit rate : 3 500 kb/s
Width : 1 920 pixels
Height : 1 080 pixels
Display aspect ratio : 16:9
Frame rate mode : Constant
Frame rate : 25.000 FPS
Color space : YUV
Chroma subsampling : 4:2:0
Bit depth : 8 bits
Scan type : Progressive
Bits/(Pixel*Frame) : 0.051
Stream size : 2.44 GiB (95%)
Writing library : x264 core 148 r2694 3b70645
Encoding settings : cabac=1 / ref=3 / deblock=1:0:0 / analyse=0x3:0x113 / me=hex / subme=7 / psy=1 / psy_rd=1.00:0.00 / mixed_ref=1 / me_range=16 / chroma_me=1 / trellis=1 / 8x8dct=1 / cqm=0 / deadzone=21,11 / fast_pskip=1 / chroma_qp_offset=-2 / threads=34 / lookahead_threads=5 / sliced_threads=0 / nr=0 / decimate=1 / interlaced=0 / bluray_compat=0 / constrained_intra=0 / bframes=3 / b_pyramid=2 / b_adapt=1 / b_bias=0 / direct=1 / weightb=1 / open_gop=0 / weightp=2 / keyint=50 / keyint_min=26 / scenecut=0 / intra_refresh=0 / rc_lookahead=40 / rc=cbr / mbtree=1 / bitrate=3500 / ratetol=1.0 / qcomp=0.60 / qpmin=0 / qpmax=69 / qpstep=4 / vbv_maxrate=3500 / vbv_bufsize=3500 / nal_hrd=none / filler=0 / ip_ratio=1.40 / aq=1:1.00
Tagged date : UTC 2017-02-25 19:18:47

Audio
ID : 2
Format : AAC
Format/Info : Advanced Audio Codec
Format profile : LC
Codec ID : 40
Duration : 2 h 11 min
Bit rate mode : Constant
Bit rate : 129 kb/s
Channel(s) : 2 channels
Channel positions : Front: L R
Sampling rate : 48.0 kHz
Frame rate : 46.875 FPS (1024 spf)
Compression mode : Lossy
Stream size : 122 MiB (5%)
Default : Yes
Alternate group : 1
Tagged date : UTC 2017-02-25 19:18:47



https://extraimage.net/images/2017/03/03/b119c96e2dc83f05bd984b3a5d24e989.png
https://extraimage.net/images/2017/03/03/7765acbd0c7d739fc9891d72962fd92f.png
https://extraimage.net/images/2017/03/03/ae56a1275c3cf7e941864070ba4b807b.png



SINGLE DIRECT FAST LINKS


http://www.heroupload.com/0b0101e6c9dc06a6/Drushya.Kavyam.2016.Telugu.WEB-HD.1080p.AVC.AAC-TMV.mp4

700MB LINKS




http://www.heroupload.com/5a130ca11a42f0b7/Drushya.Kavyam.2016.Telugu.WEB-HD.1080p.AVC.AAC-TMV.mp4.001
http://www.heroupload.com/c63c5cd752ef6093/Drushya.Kavyam.2016.Telugu.WEB-HD.1080p.AVC.AAC-TMV.mp4.002
http://www.heroupload.com/18b06e5a3b44231a/Drushya.Kavyam.2016.Telugu.WEB-HD.1080p.AVC.AAC-TMV.mp4.003
http://www.heroupload.com/0476b7784873dddb/Drushya.Kavyam.2016.Telugu.WEB-HD.1080p.AVC.AAC-TMV.mp4.004