PDA

View Full Version : S3 - Yamudu 3 (2017) Telugu - 1CDRip - PreDVDRip - x264 - MP3-TMV



wroser
02-16-2017, 07:46 PM
http://i.imgur.com/8QoiV2k.jpg





General
Format : Matroska
Format version : Version 4 / Version 2
File size : 685 MiB
Duration : 2 h 31 min
Overall bit rate mode : Variable
Overall bit rate : 632 kb/s
Encoded date : UTC 2017-02-09 21:26:47
Writing application : mkvmerge v7.0.0 ('Where We Going') 32bit built on Jun 9 2014 15:08:34
Writing library : libebml v1.3.0 + libmatroska v1.4.1

Video
ID : 1
Format : AVC
Format/Info : Advanced Video Codec
Format profile : High@L2.1
Format settings, CABAC : Yes
Format settings, ReFrames : 4 frames
Codec ID : V_MPEG4/ISO/AVC
Duration : 2 h 31 min
Bit rate : 540 kb/s
Width : 640 pixels
Height : 288 pixels
Display aspect ratio : 2.222
Frame rate mode : Constant
Frame rate : 25.000 FPS
Color space : YUV
Chroma subsampling : 4:2:0
Bit depth : 8 bits
Scan type : Progressive
Bits/(Pixel*Frame) : 0.117
Stream size : 585 MiB (85%)
Writing library : x264 core 148 r2638 7599210
Encoding settings : cabac=1 / ref=3 / deblock=1:0:0 / analyse=0x3:0x113 / me=hex / subme=7 / psy=1 / psy_rd=1.00:0.00 / mixed_ref=1 / me_range=16 / chroma_me=1 / trellis=1 / 8x8dct=1 / cqm=0 / deadzone=21,11 / fast_pskip=1 / chroma_qp_offset=-2 / threads=9 / lookahead_threads=1 / sliced_threads=0 / nr=0 / decimate=1 / interlaced=0 / bluray_compat=0 / constrained_intra=0 / bframes=3 / b_pyramid=2 / b_adapt=1 / b_bias=0 / direct=1 / weightb=1 / open_gop=0 / weightp=2 / keyint=250 / keyint_min=25 / scenecut=40 / intra_refresh=0 / rc_lookahead=40 / rc=2pass / mbtree=1 / bitrate=540 / ratetol=1.0 / qcomp=0.60 / qpmin=0 / qpmax=69 / qpstep=4 / cplxblur=20.0 / qblur=0.5 / ip_ratio=1.40 / aq=1:1.00
Language : Telugu
Default : Yes
Forced : No

Audio
ID : 2
Format : MPEG Audio
Format version : Version 1
Format profile : Layer 3
Mode : Joint stereo
Mode extension : MS Stereo
Codec ID : A_MPEG/L3
Codec ID/Hint : MP3
Duration : 2 h 31 min
Bit rate mode : Variable
Bit rate : 90.1 kb/s
Nominal bit rate : 96.0 kb/s
Channel(s) : 2 channels
Sampling rate : 48.0 kHz
Frame rate : 41.667 FPS (1152 spf)
Compression mode : Lossy
Stream size : 97.7 MiB (14%)
Writing library : LAME3.99r
Encoding settings : -m j -V 4 -q 3 -lowpass 15.1 --abr 96
Language : Telugu
Default : Yes
Forced : No




https://extraimage.net/images/2017/02/09/3e274dab860a52af0195b9c0ea466266.jpg
https://extraimage.net/images/2017/02/09/f061fa2715e8278663176cd4ef40ea3b.jpg
https://extraimage.net/images/2017/02/09/71f4e73c86a25ee61b30ad355a39f4cb.jpg
https://extraimage.net/images/2017/02/09/ef66d9beb76169aa2b16425f3ad777da.jpg
https://extraimage.net/images/2017/02/09/35a81839602aa253331608196cace79d.jpg



Note-: TMV advertisement included

SINGLE DIRECT FAST LINKS




http://www.heroupload.com/c2809e5437874c80/S3-Yamudu.3.2017.Telugu.PreDVD-Rip.700MB.x264.Clear.Audio.MP3-TMV.mkv