PDA

View Full Version : Om Namo Venkatesaya (2017) Telugu - 1GB - DVDScr - x264 - MP3-Team MTR



wroser
02-12-2017, 04:27 AM
http://i.imgur.com/KFTtgUT.jpg





General
Format : Matroska
Format version : Version 4 / Version 2
File size : 1.00 GiB
Duration : 2 h 17 min
Overall bit rate mode : Variable
Overall bit rate : 1 048 kb/s
Encoded date : UTC 2017-02-11 12:00:38
Writing application : mkvmerge v7.8.0 ('River Man') 64bit built on Mar 27 2015 16:31:37
Writing library : libebml v1.3.1 + libmatroska v1.4.2

Video
ID : 1
Format : MPEG-4 Visual
Format profile : Simple@L3
Format settings, BVOP : No
Format settings, QPel : No
Format settings, GMC : No warppoints
Format settings, Matrix : Default (H.263)
Codec ID : V_MS/VFW/FOURCC / XVID
Codec ID/Hint : XviD
Duration : 2 h 17 min
Bit rate : 940 kb/s
Width : 720 pixels
Height : 290 pixels
Display aspect ratio : 2.483
Frame rate mode : Constant
Frame rate : 25.000 FPS
Color space : YUV
Chroma subsampling : 4:2:0
Bit depth : 8 bits
Scan type : Progressive
Compression mode : Lossy
Bits/(Pixel*Frame) : 0.180
Stream size : 923 MiB (90%)
Writing library : XviD 1.2.1 (UTC 2008-12-04)
Default : Yes
Forced : No

Audio
ID : 2
Format : MPEG Audio
Format version : Version 2
Format profile : Layer 3
Mode : Joint stereo
Mode extension : MS Stereo
Codec ID : A_MPEG/L3
Codec ID/Hint : MP3
Duration : 2 h 17 min
Bit rate mode : Variable
Bit rate : 105 kb/s
Channel(s) : 2 channels
Sampling rate : 22.05 kHz
Frame rate : 38.281 FPS (576 spf)
Compression mode : Lossy
Stream size : 103 MiB (10%)
Default : Yes
Forced : No



https://extraimage.net/images/2017/02/11/0fda7c6d60073fd31443cceccc9e4693.png
https://extraimage.net/images/2017/02/11/1f7369621fcdd7406e212fd034f26557.png
https://extraimage.net/images/2017/02/11/43682394c5b73e3844bd94354453ffe5.png
https://extraimage.net/images/2017/02/11/989207b1d377efa08698cf9dbc52759c.png
https://extraimage.net/images/2017/02/11/86e3d2c0f6337a27132476f3a41fa2c8.png

SINGLE DIRECT FAST LINKS


http://www.heroupload.com/20928022c778bb45/Om.Namo.Venkatesaya.2017.Telugu.DVDScr.X264.1GB-MTR.mkv