PDA

View Full Version : Raa Raa (2018) Telugu - 720p - PreDVDRip - x264 - MP3-TMV



wroser
02-25-2018, 10:01 PM
https://i.imgur.com/ST6cVEi.jpg







General
Format : Matroska
Format version : Version 4 / Version 2
File size : 1.41 GiB
Duration : 2 h 18 min
Overall bit rate : 1 458 kb/s
Encoded date : UTC 2018-02-23 12:44:11
Writing application : mkvmerge v7.1.0 ('Good Love') 32bit built on Jul 27 2014 12:59:18
Writing library : libebml v1.3.0 + libmatroska v1.4.1

Video
ID : 1
Format : AVC
Format/Info : Advanced Video Codec
Format profile : High@L3.1
Format settings, CABAC : Yes
Format settings, RefFrames : 4 frames
Codec ID : V_MPEG4/ISO/AVC
Duration : 2 h 18 min
Bit rate : 1 360 kb/s
Width : 1 280 pixels
Height : 544 pixels
Display aspect ratio : 2.35:1
Frame rate mode : Constant
Frame rate : 23.976 (24000/1001) FPS
Color space : YUV
Chroma subsampling : 4:2:0
Bit depth : 8 bits
Scan type : Progressive
Bits/(Pixel*Frame) : 0.081
Stream size : 1.32 GiB (93%)
Writing library : x264 core 152 r2851 ba24899
Encoding settings : cabac=1 / ref=3 / deblock=1:0:0 / analyse=0x3:0x113 / me=hex / subme=7 / psy=1 / psy_rd=1.00:0.00 / mixed_ref=1 / me_range=16 / chroma_me=1 / trellis=1 / 8x8dct=1 / cqm=0 / deadzone=21,11 / fast_pskip=1 / chroma_qp_offset=-2 / threads=17 / lookahead_threads=2 / sliced_threads=0 / nr=0 / decimate=1 / interlaced=0 / bluray_compat=0 / constrained_intra=0 / bframes=3 / b_pyramid=2 / b_adapt=1 / b_bias=0 / direct=1 / weightb=1 / open_gop=0 / weightp=2 / keyint=240 / keyint_min=23 / scenecut=40 / intra_refresh=0 / rc_lookahead=40 / rc=2pass / mbtree=1 / bitrate=1360 / ratetol=1.0 / qcomp=0.60 / qpmin=0 / qpmax=69 / qpstep=4 / cplxblur=20.0 / qblur=0.5 / ip_ratio=1.40 / aq=1:1.00
Language : Telugu
Default : Yes
Forced : No

Audio
ID : 2
Format : MPEG Audio
Format version : Version 1
Format profile : Layer 3
Mode : Joint stereo
Mode extension : MS Stereo
Codec ID : A_MPEG/L3
Codec ID/Hint : MP3
Duration : 2 h 18 min
Bit rate mode : Constant
Bit rate : 96.0 kb/s
Channel(s) : 2 channels
Sampling rate : 44.1 kHz
Frame rate : 38.281 FPS (1152 SPF)
Compression mode : Lossy
Stream size : 95.1 MiB (7%)
Writing library : LAME3.100-
Language : Telugu
Default : Yes
Forced : No



https://extraimage.net/images/2018/02/23/0f26f35f4aa66cec8c2298dc75d73aab.pnghttps://extraimage.net/images/2018/02/23/f4e5238aa87935310cf4b9f642174ce6.pnghttps://extraimage.net/images/2018/02/23/7b0f6436e50dda561fc0ad7edd01ef6d.pnghttps://extraimage.net/images/2018/02/23/c714b502d658582449fde2eb111011d5.pnghttps://extraimage.net/images/2018/02/23/e1b3434e89b29f2ec2310e62b637e46e.pnghttps://extraimage.net/images/2018/02/23/5e2e5f6384c07708c1ed5f0ae7b8fd54.png


SINGLE DIRECT FAST LINKS


http://filefloater.com/7c3/Ra.Ra.2018.Telugu.720p.x264.Line.Audio-TMV.mkv



https://www.heroupload.com/34d0f528e4f0866d/Ra.Ra.2018.Telugu.720p.x264.Line.Audio-TMV.mkv