PDA

View Full Version : Howrah Bridge (2018) Telugu - 1080p - PreDVDRip - x264 - MP3-TMV



wroser
02-05-2018, 11:04 PM
https://i.imgur.com/vndbHPV.jpg





General
Format : Matroska
Format version : Version 4 / Version 2
File size : 2.34 GiB
Duration : 2 h 3 min
Overall bit rate : 2 710 kb/s
Encoded date : UTC 2018-02-05 04:14:06
Writing application : mkvmerge v7.1.0 ('Good Love') 32bit built on Jul 27 2014 12:59:18
Writing library : libebml v1.3.0 + libmatroska v1.4.1

Video
ID : 1
Format : AVC
Format/Info : Advanced Video Codec
Format profile : High@L4
Format settings, CABAC : Yes
Format settings, RefFrames : 4 frames
Codec ID : V_MPEG4/ISO/AVC
Duration : 2 h 3 min
Bit rate : 2 580 kb/s
Width : 1 920 pixels
Height : 816 pixels
Display aspect ratio : 2.35:1
Frame rate mode : Constant
Frame rate : 24.000 FPS
Color space : YUV
Chroma subsampling : 4:2:0
Bit depth : 8 bits
Scan type : Progressive
Bits/(Pixel*Frame) : 0.069
Stream size : 2.23 GiB (95%)
Writing library : x264 core 152 r2851 ba24899
Encoding settings : cabac=1 / ref=3 / deblock=1:0:0 / analyse=0x3:0x113 / me=hex / subme=7 / psy=1 / psy_rd=1.00:0.00 / mixed_ref=1 / me_range=16 / chroma_me=1 / trellis=1 / 8x8dct=1 / cqm=0 / deadzone=21,11 / fast_pskip=1 / chroma_qp_offset=-2 / threads=25 / lookahead_threads=4 / sliced_threads=0 / nr=0 / decimate=1 / interlaced=0 / bluray_compat=0 / constrained_intra=0 / bframes=3 / b_pyramid=2 / b_adapt=1 / b_bias=0 / direct=1 / weightb=1 / open_gop=0 / weightp=2 / keyint=240 / keyint_min=24 / scenecut=40 / intra_refresh=0 / rc_lookahead=40 / rc=2pass / mbtree=1 / bitrate=2580 / ratetol=1.0 / qcomp=0.60 / qpmin=0 / qpmax=69 / qpstep=4 / cplxblur=20.0 / qblur=0.5 / ip_ratio=1.40 / aq=1:1.00
Language : Telugu
Default : Yes
Forced : No

Audio
ID : 2
Format : MPEG Audio
Format version : Version 1
Format profile : Layer 3
Mode : Joint stereo
Mode extension : MS Stereo
Codec ID : A_MPEG/L3
Codec ID/Hint : MP3
Duration : 2 h 3 min
Bit rate mode : Constant
Bit rate : 128 kb/s
Channel(s) : 2 channels
Sampling rate : 44.1 kHz
Frame rate : 38.281 FPS (1152 SPF)
Compression mode : Lossy
Stream size : 113 MiB (5%)
Writing library : LAME3.100
Language : Telugu
Default : Yes
Forced : No




https://extraimage.net/images/2018/02/05/73f7ce4f1c745c4ea538f5619ea028f2.pnghttps://extraimage.net/images/2018/02/05/0406c072ba539d8fde40e7adad28378b.pnghttps://extraimage.net/images/2018/02/05/4f90fffd9ffbb71a99c960e2cd62c522.pnghttps://extraimage.net/images/2018/02/05/d0883c8b1ddbcab996e1826546496eae.pnghttps://extraimage.net/images/2018/02/05/1b9493ca3664d0195391536c27d47576.pnghttps://extraimage.net/images/2018/02/05/0f8aa64f63f558a86ad460235fa6fcdf.png




SINGLE DIRECT FAST LINKS

https://www.heroupload.com/9e47087ee3f9c692/Howrah.Bridge.2018.Telugu.1080p.x264.MP3-TMV.mkv


http://filefloater.com/cbM/Howrah.Bridge.2018.Telugu.1080p.x264.MP3-TMV.mkv
700MB LINKS


https://www.heroupload.com/3bfa8247eb71495e/Howrah.Bridge.2018.Telugu.1080p.x264.MP3-TMV.part1.rar
https://www.heroupload.com/1479529035274f73/Howrah.Bridge.2018.Telugu.1080p.x264.MP3-TMV.part2.rar
https://www.heroupload.com/668eceea5e78b7c9/Howrah.Bridge.2018.Telugu.1080p.x264.MP3-TMV.part3.rar
https://www.heroupload.com/a6626afd351a89f5/Howrah.Bridge.2018.Telugu.1080p.x264.MP3-TMV.part4.rar




http://filefloater.com/cbN/Howrah.Bridge.2018.Telugu.1080p.x264.MP3-TMV.part1.rar
http://filefloater.com/cbO/Howrah.Bridge.2018.Telugu.1080p.x264.MP3-TMV.part2.rar
http://filefloater.com/cbP/Howrah.Bridge.2018.Telugu.1080p.x264.MP3-TMV.part3.rar
http://filefloater.com/cbQ/Howrah.Bridge.2018.Telugu.1080p.x264.MP3-TMV.part4.rar