PDA

View Full Version : Ego (2018) Telugu - 720p - HD-CAM - x264 - MP3 - TMV



wroser
01-24-2018, 11:15 AM
https://i.imgur.com/V0F77mh.png





General
Format : Matroska
Format version : Version 4 / Version 2
File size : 1.39 GiB
Duration : 1 h 49 min
Overall bit rate mode : Variable
Overall bit rate : 1 822 kb/s
Encoded date : UTC 2018-01-22 19:10:35
Writing application : mkvmerge v7.1.0 ('Good Love') 32bit built on Jul 27 2014 12:59:18
Writing library : libebml v1.3.0 + libmatroska v1.4.1

Video
ID : 1
Format : AVC
Format/Info : Advanced Video Codec
Format profile : High@L3.1
Format settings, CABAC : Yes
Format settings, RefFrames : 4 frames
Codec ID : V_MPEG4/ISO/AVC
Duration : 1 h 49 min
Bit rate : 1 718 kb/s
Width : 1 280 pixels
Height : 544 pixels
Display aspect ratio : 2.35:1
Frame rate mode : Constant
Frame rate : 30.000 FPS
Color space : YUV
Chroma subsampling : 4:2:0
Bit depth : 8 bits
Scan type : Progressive
Bits/(Pixel*Frame) : 0.082
Stream size : 1.31 GiB (94%)
Writing library : x264 core 152 r2851 ba24899
Encoding settings : cabac=1 / ref=3 / deblock=1:0:0 / analyse=0x3:0x113 / me=hex / subme=7 / psy=1 / psy_rd=1.00:0.00 / mixed_ref=1 / me_range=16 / chroma_me=1 / trellis=1 / 8x8dct=1 / cqm=0 / deadzone=21,11 / fast_pskip=1 / chroma_qp_offset=-2 / threads=17 / lookahead_threads=2 / sliced_threads=0 / nr=0 / decimate=1 / interlaced=0 / bluray_compat=0 / constrained_intra=0 / bframes=3 / b_pyramid=2 / b_adapt=1 / b_bias=0 / direct=1 / weightb=1 / open_gop=0 / weightp=2 / keyint=300 / keyint_min=30 / scenecut=40 / intra_refresh=0 / rc_lookahead=40 / rc=2pass / mbtree=1 / bitrate=1718 / ratetol=1.0 / qcomp=0.60 / qpmin=0 / qpmax=69 / qpstep=4 / cplxblur=20.0 / qblur=0.5 / ip_ratio=1.40 / aq=1:1.00
Language : Telugu
Default : Yes
Forced : No

Audio
ID : 2
Format : MPEG Audio
Format version : Version 1
Format profile : Layer 3
Mode : Joint stereo
Codec ID : A_MPEG/L3
Codec ID/Hint : MP3
Duration : 1 h 49 min
Bit rate mode : Variable
Bit rate : 101 kb/s
Nominal bit rate : 96.0 kb/s
Channel(s) : 2 channels
Sampling rate : 48.0 kHz
Frame rate : 41.667 FPS (1152 SPF)
Compression mode : Lossy
Stream size : 79.1 MiB (6%)
Writing library : LAME3.99r
Encoding settings : -m j -V 4 -q 3 -lowpass 15.1 --abr 96
Language : Telugu
Default : Yes
Forced : No




https://extraimage.net/images/2018/01/23/20c75f00919a483135893a47597d9724.pnghttps://extraimage.net/images/2018/01/23/bde3d9cc932c5954c08a74dab78f8e86.pnghttps://extraimage.net/images/2018/01/23/01e85a5183e2931db2b23e06446bbd28.pnghttps://extraimage.net/images/2018/01/23/81f25c29758bc836560ee483a8add4b3.pnghttps://extraimage.net/images/2018/01/23/69e8fbb1faf6470d21b3d8357bed0f3e.pnghttps://extraimage.net/images/2018/01/23/e713e917ca7d6ec26a171f657150625d.png




SINGLE DIRECT FAST LINKS


https://www.heroupload.com/69e661cbd1ca4209/Ego.2018.Telugu.720p.x264.MP3-TMV.mkv



http://filefloater.com/9uk/Ego.2018.Telugu.720p.x264.MP3-TMV.mkv