PDA

View Full Version : Gang (2018) Telugu - 1080p - PreDVDRip - x264 - MP3-MTR



wroser
01-12-2018, 09:41 PM
https://i.imgur.com/5MHXTew.jpg





General
Format : Matroska
Format version : Version 4 / Version 2
File size : 1.40 GiB
Duration : 2 h 7 min
Overall bit rate mode : Variable
Overall bit rate : 1 570 kb/s
Encoded date : UTC 2018-01-12 22:18:20
Writing application : mkvmerge v7.8.0 ('River Man') 64bit built on Mar 27 2015 16:31:37
Writing library : libebml v1.3.1 + libmatroska v1.4.2

Video
ID : 1
Format : AVC
Format/Info : Advanced Video Codec
Format profile : High@L2.1
Format settings, CABAC : Yes
Format settings, RefFrames : 4 frames
Codec ID : V_MPEG4/ISO/AVC
Duration : 2 h 7 min
Bit rate : 1 450 kb/s
Width : 608 pixels
Height : 256 pixels
Display aspect ratio : 2.40:1
Frame rate mode : Constant
Frame rate : 25.000 FPS
Color space : YUV
Chroma subsampling : 4:2:0
Bit depth : 8 bits
Scan type : Progressive
Bits/(Pixel*Frame) : 0.373
Stream size : 1.30 GiB (92%)
Writing library : x264 core 148 r2744 b97ae06
Encoding settings : cabac=1 / ref=3 / deblock=1:0:0 / analyse=0x3:0x113 / me=hex / subme=7 / psy=1 / psy_rd=1.00:0.00 / mixed_ref=1 / me_range=16 / chroma_me=1 / trellis=1 / 8x8dct=1 / cqm=0 / deadzone=21,11 / fast_pskip=1 / chroma_qp_offset=-2 / threads=8 / lookahead_threads=1 / sliced_threads=0 / nr=0 / decimate=1 / interlaced=0 / bluray_compat=0 / constrained_intra=0 / bframes=3 / b_pyramid=2 / b_adapt=1 / b_bias=0 / direct=1 / weightb=1 / open_gop=0 / weightp=2 / keyint=250 / keyint_min=25 / scenecut=40 / intra_refresh=0 / rc_lookahead=40 / rc=2pass / mbtree=1 / bitrate=1450 / ratetol=1.0 / qcomp=0.60 / qpmin=0 / qpmax=69 / qpstep=4 / cplxblur=20.0 / qblur=0.5 / ip_ratio=1.40 / aq=1:1.00
Language : English
Default : Yes
Forced : No

Audio
ID : 2
Format : MPEG Audio
Format version : Version 2
Format profile : Layer 3
Mode : Joint stereo
Mode extension : MS Stereo
Codec ID : A_MPEG/L3
Codec ID/Hint : MP3
Duration : 2 h 7 min
Bit rate mode : Variable
Bit rate : 118 kb/s
Nominal bit rate : 128 kb/s
Channel(s) : 2 channels
Sampling rate : 22.05 kHz
Frame rate : 38.281 FPS (576 SPF)
Compression mode : Lossy
Stream size : 108 MiB (8%)
Writing library : LAME3.99r
Encoding settings : -m j -V 4 -q 3 -lowpass 11 --abr 128
Language : English
Default : Yes
Forced : No


https://extraimage.net/images/2018/01/12/e0f663fe2933cc97b40b7306664a78e0.pnghttps://extraimage.net/images/2018/01/12/29956513eab98b08708ebf6c9fc919ee.pnghttps://extraimage.net/images/2018/01/12/2874181216e602ac12bf958bc445c576.pnghttps://extraimage.net/images/2018/01/12/f4acae8c7ff3be313d5ab1b4c52d14b9.pnghttps://extraimage.net/images/2018/01/12/1ae8f04d7eae0235919ff9dbd97d936e.pnghttps://extraimage.net/images/2018/01/12/e879781e9280748f70e711e1ff8ee1f2.png




SINGLE DIRECT FAST LINKS

https://www.heroupload.com/cf25fc3b1f03ed74/Gang.2018.Telugu.1080p.x264.Line.Audio-MTR.mkv


http://filefloater.com/4d3/Gang.2018.Telugu.1080p.x264.Line.Audio-MTR.mkv
700MB LINKS


https://www.heroupload.com/3d406ce4c234d07b/Gang.2018.Telugu.1080p.x264.Line.Audio-MTR.part1.rar
https://www.heroupload.com/70dff9191c8db208/Gang.2018.Telugu.1080p.x264.Line.Audio-MTR.part2.rar
https://www.heroupload.com/22c69994bfd7ea3d/Gang.2018.Telugu.1080p.x264.Line.Audio-MTR.part3.rar
https://www.heroupload.com/0aaa3a5f28d58098/Gang.2018.Telugu.1080p.x264.Line.Audio-MTR.part4.rar




http://filefloater.com/4d4/Gang.2018.Telugu.1080p.x264.Line.Audio-MTR.part1.rar
http://filefloater.com/4d5/Gang.2018.Telugu.1080p.x264.Line.Audio-MTR.part2.rar
http://filefloater.com/4d6/Gang.2018.Telugu.1080p.x264.Line.Audio-MTR.part3.rar
http://filefloater.com/4d7/Gang.2018.Telugu.1080p.x264.Line.Audio-MTR.part4.rar