PDA

View Full Version : Pokkiri Simon (2017) Malayalam - 700MB - 1CDRip - DVDRip - XviD - MP3-MTR



wroser
12-22-2017, 10:49 PM
https://i.imgur.com/oo2ca8w.jpg







General
Format : AVI
Format/Info : Audio Video Interleave
File size : 713 MiB
Duration : 2 h 25 min
Overall bit rate : 683 kb/s

Video
ID : 0
Format : MPEG-4 Visual
Format profile : Advanced Simple@L5
Format settings, BVOP : 2
Format settings, QPel : No
Format settings, GMC : No warppoints
Format settings, Matrix : Default (H.263)
Codec ID : XVID
Codec ID/Hint : XviD
Duration : 2 h 25 min
Bit rate : 581 kb/s
Width : 640 pixels
Height : 264 pixels
Display aspect ratio : 2.40:1
Frame rate : 23.976 (24000/1001) FPS
Color space : YUV
Chroma subsampling : 4:2:0
Bit depth : 8 bits
Scan type : Progressive
Compression mode : Lossy
Bits/(Pixel*Frame) : 0.143
Stream size : 606 MiB (85%)
Writing library : XviD 67

Audio
ID : 1
Format : MPEG Audio
Format version : Version 1
Format profile : Layer 3
Mode : Joint stereo
Mode extension : MS Stereo
Codec ID : 55
Codec ID/Hint : MP3
Duration : 2 h 25 min
Bit rate mode : Constant
Bit rate : 96.0 kb/s
Channel(s) : 2 channels
Sampling rate : 48.0 kHz
Compression mode : Lossy
Stream size : 100 MiB (14%)
Alignment : Aligned on interleaves
Interleave, duration : 167 ms (4.00 video frames)
Interleave, preload duratio : 216 ms
Title : Pokkiri Simon
Writing library : LAME3.99.5



https://extraimage.net/images/2017/12/22/74128142d1feca7740d03f497a53b393.pnghttps://extraimage.net/images/2017/12/22/46c2e929c3212ef3e775e258d4eb56e9.pnghttps://extraimage.net/images/2017/12/22/c7627e913d4a2f6447d26602ac488f02.pnghttps://extraimage.net/images/2017/12/22/ed549d9df39b0e7e772b654c34806f2f.pnghttps://extraimage.net/images/2017/12/22/220b2b3bf1ef862986ddeeff1b01fee0.pnghttps://extraimage.net/images/2017/12/22/43e4b4e33c4b740fcb38d7539f742868.png


SINGLE DIRECT FAST LINKS



https://www.heroupload.com/6b4cbe6e09785a17/Pokkiri.Simon.2017.Malayalam.Original.DVDRip.XviD. MP3.700MB-MTR.avi