PDA

View Full Version : Khakee (2017) Telugu Line - 1080p - HDRip - x264 - MP3-MTR



wroser
12-01-2017, 05:30 PM
https://i.imgur.com/SfJBPvk.jpg





General
Format : Matroska
Format version : Version 4 / Version 2
File size : 3.00 GiB
Duration : 2 h 36 min
Overall bit rate : 2 751 kb/s
Encoded date : UTC 2017-12-01 17:01:38
Writing application : mkvmerge v7.8.0 ('River Man') 64bit built on Mar 27 2015 16:31:37
Writing library : libebml v1.3.1 + libmatroska v1.4.2

Video
ID : 1
Format : AVC
Format/Info : Advanced Video Codec
Format profile : High@L4
Format settings, CABAC : Yes
Format settings, RefFrames : 4 frames
Codec ID : V_MPEG4/ISO/AVC
Duration : 2 h 36 min
Bit rate : 2 637 kb/s
Width : 1 920 pixels
Height : 854 pixels
Display aspect ratio : 2.25:1
Frame rate mode : Constant
Frame rate : 29.970 (30000/1001) FPS
Color space : YUV
Chroma subsampling : 4:2:0
Bit depth : 8 bits
Scan type : Progressive
Bits/(Pixel*Frame) : 0.054
Stream size : 2.88 GiB (96%)
Writing library : x264 core 148 r2744 b97ae06
Encoding settings : cabac=1 / ref=3 / deblock=1:0:0 / analyse=0x3:0x113 / me=hex / subme=7 / psy=1 / psy_rd=1.00:0.00 / mixed_ref=1 / me_range=16 / chroma_me=1 / trellis=1 / 8x8dct=1 / cqm=0 / deadzone=21,11 / fast_pskip=1 / chroma_qp_offset=-2 / threads=27 / lookahead_threads=4 / sliced_threads=0 / nr=0 / decimate=1 / interlaced=0 / bluray_compat=0 / constrained_intra=0 / bframes=3 / b_pyramid=2 / b_adapt=1 / b_bias=0 / direct=1 / weightb=1 / open_gop=0 / weightp=2 / keyint=300 / keyint_min=29 / scenecut=40 / intra_refresh=0 / rc_lookahead=40 / rc=2pass / mbtree=1 / bitrate=2637 / ratetol=1.0 / qcomp=0.60 / qpmin=0 / qpmax=69 / qpstep=4 / cplxblur=20.0 / qblur=0.5 / ip_ratio=1.40 / aq=1:1.00
Default : Yes
Forced : No

Audio
ID : 2
Format : MPEG Audio
Format version : Version 1
Format profile : Layer 3
Mode : Joint stereo
Mode extension : MS Stereo
Codec ID : A_MPEG/L3
Codec ID/Hint : MP3
Duration : 2 h 36 min
Bit rate mode : Constant
Bit rate : 112 kb/s
Channel(s) : 2 channels
Sampling rate : 44.1 kHz
Frame rate : 38.281 FPS (1152 SPF)
Compression mode : Lossy
Stream size : 125 MiB (4%)
Default : Yes
Forced : No




https://extraimage.net/images/2017/12/01/795603643f48cc5023d458cf7f3c73ee.pnghttps://extraimage.net/images/2017/12/01/5eed25c672ad5271fa9f5320a2dccbf6.pnghttps://extraimage.net/images/2017/12/01/344803bf36ab144754885cd8a0239455.pnghttps://extraimage.net/images/2017/12/01/9e892fdc412721775ea32b4807067c92.png



SINGLE DIRECT FAST LINKS


http://www.heroupload.com/194feb8a51358b55/Khakee.2017.Telugu.1080p.HDRip._x264.Line.Audio-MTR.mkv

700MB LINKS




http://www.heroupload.com/2f1d07db35f68d0d/Khakee.2017.Telugu.1080p.HDRip._x264.Line.Audio-MTR.part1.rar
http://www.heroupload.com/3e4237768a14a4bb/Khakee.2017.Telugu.1080p.HDRip._x264.Line.Audio-MTR.part2.rar
http://www.heroupload.com/684ae8e7a195bfc7/Khakee.2017.Telugu.1080p.HDRip._x264.Line.Audio-MTR.part3.rar
http://www.heroupload.com/d0cf403ba07bf3b2/Khakee.2017.Telugu.1080p.HDRip._x264.Line.Audio-MTR.part4.rar
http://www.heroupload.com/1db76b563d70a4ed/Khakee.2017.Telugu.1080p.HDRip._x264.Line.Audio-MTR.part5.rar