PDA

View Full Version : Meda Meeda Abbayi (2017) Telugu - 720p - HDTVRip - x264 - DD5.1-TMV



wroser
11-26-2017, 12:45 AM
https://i.imgur.com/ll4CFW8.jpg





General
Format : Matroska
Format version : Version 4 / Version 2
File size : 1.30 GiB
Duration : 2 h 0 min
Overall bit rate : 1 546 kb/s
Encoded date : UTC 2017-11-25 16:59:13
Writing application : mkvmerge v7.0.0 ('Where We Going') 32bit built on Jun 9 2014 15:08:34
Writing library : libebml v1.3.0 + libmatroska v1.4.1

Video
ID : 1
Format : AVC
Format/Info : Advanced Video Codec
Format profile : High@L3.1
Format settings, CABAC : Yes
Format settings, RefFrames : 4 frames
Codec ID : V_MPEG4/ISO/AVC
Duration : 2 h 0 min
Bit rate : 1 384 kb/s
Width : 1 280 pixels
Height : 544 pixels
Display aspect ratio : 2.35:1
Frame rate mode : Constant
Frame rate : 25.000 FPS
Color space : YUV
Chroma subsampling : 4:2:0
Bit depth : 8 bits
Scan type : Progressive
Bits/(Pixel*Frame) : 0.080
Stream size : 1.16 GiB (90%)
Writing library : x264 core 148 r2744 b97ae06
Encoding settings : cabac=1 / ref=3 / deblock=1:0:0 / analyse=0x3:0x113 / me=hex / subme=7 / psy=1 / psy_rd=1.00:0.00 / mixed_ref=1 / me_range=16 / chroma_me=1 / trellis=1 / 8x8dct=1 / cqm=0 / deadzone=21,11 / fast_pskip=1 / chroma_qp_offset=-2 / threads=17 / lookahead_threads=2 / sliced_threads=0 / nr=0 / decimate=1 / interlaced=0 / bluray_compat=0 / constrained_intra=0 / bframes=3 / b_pyramid=2 / b_adapt=1 / b_bias=0 / direct=1 / weightb=1 / open_gop=0 / weightp=2 / keyint=250 / keyint_min=25 / scenecut=40 / intra_refresh=0 / rc_lookahead=40 / rc=2pass / mbtree=1 / bitrate=1384 / ratetol=1.0 / qcomp=0.60 / qpmin=0 / qpmax=69 / qpstep=4 / cplxblur=20.0 / qblur=0.5 / ip_ratio=1.40 / aq=1:1.00
Language : Telugu
Default : Yes
Forced : No

Audio
ID : 2
Format : AC-3
Format/Info : Audio Coding 3
Format settings, Endianness : Big
Codec ID : A_AC3
Duration : 2 h 0 min
Bit rate mode : Constant
Bit rate : 160 kb/s
Channel(s) : 6 channels
Channel positions : Front: L C R, Side: L R, LFE
Sampling rate : 44.1 kHz
Frame rate : 28.711 FPS (1536 SPF)
Bit depth : 16 bits
Compression mode : Lossy
Stream size : 137 MiB (10%)
Language : Telugu
Service kind : Complete Main
Default : Yes
Forced : No


https://extraimage.net/images/2017/11/25/35796d6ef46134118fe66b0a9dd36213.pnghttps://extraimage.net/images/2017/11/25/bb837f6378027ce4494010540edb5ac2.pnghttps://extraimage.net/images/2017/11/25/4a5e2e5d3f63c8b0d0f666da82a8e21d.pnghttps://extraimage.net/images/2017/11/25/703762451dc86e74bd95cfa36b750a45.pnghttps://extraimage.net/images/2017/11/25/6e506c898e864cc769b2a9d2d9545a31.png


SINGLE DIRECT FAST LINKS



http://www.heroupload.com/2ea276a77f82f12f/Meda.Meeda.Abbayi.2017.Telugu.HDTV-Rip.720p.x264.DD5.1-TMV.mkv