PDA

View Full Version : Jaya Janaki Nayaka (2017) Telugu - 480p - WEB-HD - AVC - AAC - HC-ESub-TMV



wroser
11-25-2017, 05:01 PM
https://i.imgur.com/ZX4AEm2.jpg





General
Format : MPEG-4
Format profile : Base Media
Codec ID : isom (isom/iso2/avc1/mp41)
File size : 1.17 GiB
Duration : 2 h 27 min
Overall bit rate : 1 142 kb/s
Writing application : Lavf57.41.100

Video
ID : 1
Format : AVC
Format/Info : Advanced Video Codec
Format profile : Main@L3.1
Format settings, CABAC : Yes
Format settings, RefFrames : 4 frames
Format settings, GOP : M=4, N=50
Codec ID : avc1
Codec ID/Info : Advanced Video Coding
Duration : 2 h 27 min
Bit rate : 1 041 kb/s
Nominal bit rate : 1 200 kb/s
Width : 768 pixels
Height : 432 pixels
Display aspect ratio : 16:9
Frame rate mode : Constant
Frame rate : 25.000 FPS
Color space : YUV
Chroma subsampling : 4:2:0
Bit depth : 8 bits
Scan type : Progressive
Bits/(Pixel*Frame) : 0.126
Stream size : 1.07 GiB (91%)
Writing library : x264 core 148 r2694 3b70645
Encoding settings : cabac=1 / ref=3 / deblock=1:0:0 / analyse=0x1:0x111 / me=hex / subme=7 / psy=1 / psy_rd=1.00:0.00 / mixed_ref=1 / me_range=16 / chroma_me=1 / trellis=1 / 8x8dct=0 / cqm=0 / deadzone=21,11 / fast_pskip=1 / chroma_qp_offset=-2 / threads=13 / lookahead_threads=2 / sliced_threads=0 / nr=0 / decimate=1 / interlaced=0 / bluray_compat=0 / constrained_intra=0 / bframes=3 / b_pyramid=2 / b_adapt=1 / b_bias=0 / direct=1 / weightb=1 / open_gop=0 / weightp=2 / keyint=50 / keyint_min=26 / scenecut=0 / intra_refresh=0 / rc_lookahead=40 / rc=cbr / mbtree=1 / bitrate=1200 / ratetol=1.0 / qcomp=0.60 / qpmin=0 / qpmax=69 / qpstep=4 / vbv_maxrate=1200 / vbv_bufsize=1200 / nal_hrd=none / filler=0 / ip_ratio=1.40 / aq=1:1.00
Tagged date : UTC 2017-11-25 03:00:18

Audio
ID : 2
Format : AAC
Format/Info : Advanced Audio Codec
Format profile : LC
Codec ID : 40
Duration : 2 h 27 min
Source duration : 2 h 27 min
Source_Duration_LastFrame : -21 ms
Bit rate mode : Constant
Bit rate : 96.0 kb/s
Channel(s) : 2 channels
Channel positions : Front: L R
Sampling rate : 44.1 kHz
Frame rate : 43.066 FPS (1024 SPF)
Compression mode : Lossy
Stream size : 102 MiB (9%)
Source stream size : 102 MiB (9%)
Default : Yes
Alternate group : 1
Tagged date : UTC 2017-11-25 03:00:18



https://extraimage.net/images/2017/11/25/4665b531e08e112c4aa8967e4e531249.pnghttps://extraimage.net/images/2017/11/25/fa22b43c1892c325157bebd16e323a80.pnghttps://extraimage.net/images/2017/11/25/a411d4fa11534ecd76684cf1b473da69.pnghttps://extraimage.net/images/2017/11/25/c18ab729f315bcf39a7abba2bf89c926.pnghttps://extraimage.net/images/2017/11/25/0e84f9731ce5ee117c47a2b1fb6427fe.png


SINGLE DIRECT FAST LINKS



http://www.heroupload.com/3de9fc99a0df31a4/Jaya.Janaki.Nayaka.2017.Telugu.WEB-HD.480p.AVC.AAC.HC-ESub-TMV.mp4