PDA

View Full Version : Raja The Great (2017) Telugu - 1080p - WEB-HD - AVC - DD5.1 - ESub-TMV



wroser
11-24-2017, 01:09 AM
https://i.imgur.com/vMRl9wN.jpg





Format : MPEG-4
Format profile : Base Media
Codec ID : isom (isom)
File size : 3.11 GiB
Duration : 2 h 30 min
Overall bit rate mode : Variable
Overall bit rate : 2 961 kb/s
Encoded date : UTC 2017-11-23 18:41:30
Tagged date : UTC 2017-11-23 18:41:30

Video
ID : 1
Format : AVC
Format/Info : Advanced Video Codec
Format profile : Main@L4
Format settings, CABAC : Yes
Format settings, RefFrames : 4 frames
Codec ID : avc1
Codec ID/Info : Advanced Video Coding
Duration : 2 h 30 min
Bit rate : 2 798 kb/s
Maximum bit rate : 11.2 Mb/s
Width : 1 920 pixels
Height : 1 080 pixels
Display aspect ratio : 16:9
Frame rate mode : Constant
Frame rate : 30.000 FPS
Color space : YUV
Chroma subsampling : 4:2:0
Bit depth : 8 bits
Scan type : Progressive
Bits/(Pixel*Frame) : 0.045
Stream size : 2.94 GiB (94%)
Writing library : x264 core 148 r2708 86b7198
Encoding settings : cabac=1 / ref=2 / deblock=1:0:0 / analyse=0x1:0x111 / me=hex / subme=6 / psy=1 / psy_rd=1.00:0.00 / mixed_ref=1 / me_range=16 / chroma_me=1 / trellis=1 / 8x8dct=0 / cqm=0 / deadzone=21,11 / fast_pskip=1 / chroma_qp_offset=-2 / threads=34 / lookahead_threads=5 / sliced_threads=0 / nr=0 / decimate=1 / interlaced=0 / bluray_compat=0 / constrained_intra=0 / bframes=3 / b_pyramid=2 / b_adapt=1 / b_bias=0 / direct=1 / weightb=1 / open_gop=0 / weightp=1 / keyint=300 / keyint_min=30 / scenecut=40 / intra_refresh=0 / rc_lookahead=30 / rc=2pass / mbtree=1 / bitrate=2798 / ratetol=1.0 / qcomp=0.60 / qpmin=0 / qpmax=69 / qpstep=4 / cplxblur=20.0 / qblur=0.5 / vbv_maxrate=20000 / vbv_bufsize=25000 / nal_hrd=none / filler=0 / ip_ratio=1.40 / aq=1:1.00
Encoded date : UTC 2017-11-23 17:29:45
Tagged date : UTC 2017-11-23 18:41:42
Color range : Limited
Color primaries : BT.709
Transfer characteristics : BT.709
Matrix coefficients : BT.709

Audio
ID : 2
Format : AC-3
Format/Info : Audio Coding 3
Format settings, Endianness : Big
Codec ID : ac-3
Duration : 2 h 30 min
Bit rate mode : Constant
Bit rate : 160 kb/s
Maximum bit rate : 167 kb/s
Channel(s) : 6 channels
Channel positions : Front: L C R, Side: L R, LFE
Sampling rate : 44.1 kHz
Frame rate : 28.711 FPS (1536 SPF)
Bit depth : 16 bits
Compression mode : Lossy
Stream size : 172 MiB (5%)
Language : Telugu
Service kind : Complete Main
Encoded date : UTC 2017-11-23 18:41:39
Tagged date : UTC 2017-11-23 18:41:42

Text
ID : 3
Format : Timed Text
Codec ID : tx3g
Duration : 2 h 28 min
Bit rate mode : Variable
Bit rate : 76 b/s
Stream size : 82.7 KiB (0%)
Forced : No
Encoded date : UTC 2017-11-23 18:41:41
Tagged date : UTC 2017-11-23 18:41:42


https://extraimage.net/images/2017/11/23/07cf91b1e9dcdaa54f5aac7ac150569e.pnghttps://extraimage.net/images/2017/11/23/d7693180f1dff8686a6c253442627eae.pnghttps://extraimage.net/images/2017/11/23/661d23e7b665dbed9823f8f34f56e686.pnghttps://extraimage.net/images/2017/11/23/1b22b2431b70dc782a902313c96ababc.pnghttps://extraimage.net/images/2017/11/23/6965a92847c111fb328eb968c9553006.pnghttps://extraimage.net/images/2017/11/23/e46e9ada2c019092f8f16f4fa8bd0193.png


SINGLE DIRECT FAST LINKS


http://www.heroupload.com/af918ae493ff5a0f/Raja.The.Great.2017.Telugu.True.WEB-HD.1080p.AVC.AC3.ESub-TMV.mp4

700MB LINKS




http://www.heroupload.com/8bd2d6695186b694/Raja.The.Great.2017.Telugu.True.WEB-HD.1080p.AVC.AC3.ESub-TMV.part1.rar
http://www.heroupload.com/8693260d3cf38323/Raja.The.Great.2017.Telugu.True.WEB-HD.1080p.AVC.AC3.ESub-TMV.part2.rar
http://www.heroupload.com/799894131a96a476/Raja.The.Great.2017.Telugu.True.WEB-HD.1080p.AVC.AC3.ESub-TMV.part3.rar
http://www.heroupload.com/34b808fafaad84d4/Raja.The.Great.2017.Telugu.True.WEB-HD.1080p.AVC.AC3.ESub-TMV.part4.rar
http://www.heroupload.com/d76dbd5c965138b1/Raja.The.Great.2017.Telugu.True.WEB-HD.1080p.AVC.AC3.ESub-TMV.part5.rar
http://www.heroupload.com/f6e9d1a205e13b0f/Raja.The.Great.2017.Telugu.True.WEB-HD.1080p.AVC.AC3.ESub-TMV.srt