PDA

View Full Version : Sherlock Toms (2017) Malayalam - 700MB - 1CDRip - v1 - LQ DVDRip - x264 - MP3-Exclusi



wroser
11-23-2017, 03:45 AM
https://i.imgur.com/yIR3B7D.jpg








Format : Matroska
Format version : Version 4 / Version 2
File size : 701 MiB
Duration : 2 h 26 min
Overall bit rate mode : Variable
Overall bit rate : 670 kb/s
Encoded date : UTC 2017-11-22 16:42:32
Writing application : mkvmerge v18.0.0 ('Apricity') 64-bit
Writing library : libebml v1.3.5 + libmatroska v1.4.8

Video
ID : 1
Format : AVC
Format/Info : Advanced Video Codec
Format profile : High@L2.1
Format settings, CABAC : Yes
Format settings, RefFrames : 4 frames
Codec ID : V_MPEG4/ISO/AVC
Duration : 2 h 26 min
Bit rate : 570 kb/s
Width : 640 pixels
Height : 272 pixels
Display aspect ratio : 2.35:1
Frame rate mode : Constant
Frame rate : 25.000 FPS
Color space : YUV
Chroma subsampling : 4:2:0
Bit depth : 8 bits
Scan type : Progressive
Bits/(Pixel*Frame) : 0.131
Stream size : 596 MiB (85%)
Writing library : x264 core 148 r2744 b97ae06
Encoding settings : cabac=1 / ref=3 / deblock=1:0:0 / analyse=0x3:0x113 / me=hex / subme=7 / psy=1 / psy_rd=1.00:0.00 / mixed_ref=1 / me_range=16 / chroma_me=1 / trellis=1 / 8x8dct=1 / cqm=0 / deadzone=21,11 / fast_pskip=1 / chroma_qp_offset=-2 / threads=8 / lookahead_threads=1 / sliced_threads=0 / nr=0 / decimate=1 / interlaced=0 / bluray_compat=0 / constrained_intra=0 / bframes=3 / b_pyramid=2 / b_adapt=1 / b_bias=0 / direct=1 / weightb=1 / open_gop=0 / weightp=2 / keyint=250 / keyint_min=25 / scenecut=40 / intra_refresh=0 / rc_lookahead=40 / rc=2pass / mbtree=1 / bitrate=570 / ratetol=1.0 / qcomp=0.60 / qpmin=0 / qpmax=69 / qpstep=4 / cplxblur=20.0 / qblur=0.5 / ip_ratio=1.40 / aq=1:1.00
Language : Malayalam
Default : Yes
Forced : No

Audio
ID : 2
Format : MPEG Audio
Format version : Version 1
Format profile : Layer 3
Mode : Joint stereo
Mode extension : MS Stereo
Codec ID : A_MPEG/L3
Codec ID/Hint : MP3
Duration : 2 h 26 min
Bit rate mode : Variable
Bit rate : 96.0 kb/s
Channel(s) : 2 channels
Sampling rate : 44.1 kHz
Frame rate : 38.281 FPS (1152 SPF)
Compression mode : Lossy
Stream size : 103 MiB (15%)
Writing library : LAME3.99r
Encoding settings : -m j -V 4 -q 3 -lowpass 15.1 --abr 96
Language : Malayalam
Default : Yes
Forced : No


https://extraimage.net/images/2017/11/22/c2dda86a36d6c6c33a65c672cffec176.jpghttps://extraimage.net/images/2017/11/22/8edfaa60502e2597cca5b84088d4294a.jpghttps://extraimage.net/images/2017/11/22/d97da800fede76b9cdc7118166e377d5.jpghttps://extraimage.net/images/2017/11/22/5dadf60fabda61d1c6028329958e3798.jpghttps://extraimage.net/images/2017/11/22/63ecdb52add2a71f32d4b9aaeb4414d9.jpghttps://extraimage.net/images/2017/11/22/e6317d7e685af6effeb09d68c11a4d92.jpg



SINGLE DIRECT FAST LINKS




http://www.heroupload.com/f4b0dda2903cff4f/Sherlock.Toms.2017.Malayalam.v1.LQ.DVDRip.x264.700 MB-Exclusive.mkv