PDA

View Full Version : Detective (2017) 720p - HDRip - x264 - MP3 - ESub [Telugu (Line) + Tamil] - TMV



wroser
11-11-2017, 01:08 AM
https://i.imgur.com/nmon4ce.jpg








General
Format : Matroska
Format version : Version 4 / Version 2
File size : 1.44 GiB
Duration : 2 h 34 min
Overall bit rate mode : Variable
Overall bit rate : 1 329 kb/s
Encoded date : UTC 2017-11-10 12:02:13
Writing application : mkvmerge v7.0.0 ('Where We Going') 32bit built on Jun 9 2014 15:08:34
Writing library : libebml v1.3.0 + libmatroska v1.4.1

Video
ID : 1
Format : AVC
Format/Info : Advanced Video Codec
Format profile : High@L3.1
Format settings, CABAC : Yes
Format settings, RefFrames : 4 frames
Codec ID : V_MPEG4/ISO/AVC
Duration : 2 h 34 min
Bit rate : 1 168 kb/s
Width : 1 280 pixels
Height : 544 pixels
Display aspect ratio : 2.35:1
Frame rate mode : Constant
Frame rate : 29.970 (30000/1001) FPS
Color space : YUV
Chroma subsampling : 4:2:0
Bit depth : 8 bits
Scan type : Progressive
Bits/(Pixel*Frame) : 0.056
Stream size : 1.26 GiB (88%)
Writing library : x264 core 148 r2744 b97ae06
Encoding settings : cabac=1 / ref=3 / deblock=1:0:0 / analyse=0x3:0x113 / me=hex / subme=7 / psy=1 / psy_rd=1.00:0.00 / mixed_ref=1 / me_range=16 / chroma_me=1 / trellis=1 / 8x8dct=1 / cqm=0 / deadzone=21,11 / fast_pskip=1 / chroma_qp_offset=-2 / threads=17 / lookahead_threads=2 / sliced_threads=0 / nr=0 / decimate=1 / interlaced=0 / bluray_compat=0 / constrained_intra=0 / bframes=3 / b_pyramid=2 / b_adapt=1 / b_bias=0 / direct=1 / weightb=1 / open_gop=0 / weightp=2 / keyint=300 / keyint_min=29 / scenecut=40 / intra_refresh=0 / rc_lookahead=40 / rc=2pass / mbtree=1 / bitrate=1168 / ratetol=1.0 / qcomp=0.60 / qpmin=0 / qpmax=69 / qpstep=4 / cplxblur=20.0 / qblur=0.5 / ip_ratio=1.40 / aq=1:1.00
Language : Tamil
Default : Yes
Forced : No

Audio #1
ID : 2
Format : MPEG Audio
Format version : Version 2
Format profile : Layer 3
Mode : Joint stereo
Mode extension : MS Stereo
Codec ID : A_MPEG/L3
Codec ID/Hint : MP3
Duration : 2 h 34 min
Bit rate mode : Variable
Bit rate : 88.9 kb/s
Nominal bit rate : 96.0 kb/s
Channel(s) : 2 channels
Sampling rate : 22.05 kHz
Frame rate : 38.281 FPS (576 SPF)
Compression mode : Lossy
Stream size : 98.3 MiB (7%)
Writing library : LAME3.99r
Encoding settings : -m j -V 4 -q 3 -lowpass 11 --abr 96
Language : Telugu
Default : Yes
Forced : No

Audio #2
ID : 3
Format : MPEG Audio
Format version : Version 1
Format profile : Layer 3
Mode : Joint stereo
Mode extension : MS Stereo
Codec ID : A_MPEG/L3
Codec ID/Hint : MP3
Duration : 2 h 34 min
Bit rate mode : Variable
Bit rate : 69.2 kb/s
Nominal bit rate : 64.0 kb/s
Channel(s) : 2 channels
Sampling rate : 48.0 kHz
Frame rate : 41.667 FPS (1152 SPF)
Compression mode : Lossy
Stream size : 76.6 MiB (5%)
Writing library : LAME3.99r
Encoding settings : -m j -V 4 -q 3 -lowpass 11 --abr 64
Language : Tamil
Default : No
Forced : No

Text
ID : 4
Format : UTF-8
Codec ID : S_TEXT/UTF8
Codec ID/Info : UTF-8 Plain Text
Duration : 2 h 28 min
Bit rate : 37 b/s
Count of elements : 1195
Stream size : 41.1 KiB (0%)
Language : English
Default : Yes
Forced : No


https://extraimage.net/images/2017/10/19/74e28a4f507a5f06c70765946d8521a2.png
https://extraimage.net/images/2017/10/19/0c45f24128886e811f65f55ab7feb37e.pnghttps://extraimage.net/images/2017/10/19/a72b814c15c09246a328610ffd7a9ee9.pnghttps://extraimage.net/images/2017/10/19/30a4f7fb6243a08b05045a7fdf0ce1b3.pnghttps://extraimage.net/images/2017/10/19/95d22a1be2a96ccc1b5eae0092ece294.pnghttps://extraimage.net/images/2017/10/19/55ad388a14b777458f8fdf43afff2acf.png



SINGLE DIRECT FAST LINKS



http://www.heroupload.com/cd6fdeb192849601/Detective.2017.HDRip.720p.Telugu.Line+Tamil.ESub-TMV.mkv
http://www.heroupload.com/ce8d900773dd9350/Detective.2017.HDRip.720p.Telugu.Line+Tamil.ESub-TMV.srt