PDA

View Full Version : Adhirindhi (Mersal) (2017) Telugu - 720p - PreDVDRip - x264 - MP3-TMV Exclusive



wroser
11-09-2017, 04:42 PM
https://i.imgur.com/l8z7Qoh.jpg






General
Format : Matroska
Format version : Version 4 / Version 2
File size : 1.37 GiB
Duration : 2 h 45 min
Overall bit rate mode : Variable
Overall bit rate : 1 187 kb/s
Encoded date : UTC 2017-11-09 10:40:36
Writing application : mkvmerge v7.0.0 ('Where We Going') 32bit built on Jun 9 2014 15:08:34
Writing library : libebml v1.3.0 + libmatroska v1.4.1

Video
ID : 1
Format : AVC
Format/Info : Advanced Video Codec
Format profile : High@L3.1
Format settings, CABAC : Yes
Format settings, RefFrames : 4 frames
Codec ID : V_MPEG4/ISO/AVC
Duration : 2 h 45 min
Bit rate : 1 088 kb/s
Width : 1 280 pixels
Height : 544 pixels
Display aspect ratio : 2.35:1
Frame rate mode : Constant
Frame rate : 15.000 FPS
Color space : YUV
Chroma subsampling : 4:2:0
Bit depth : 8 bits
Scan type : Progressive
Bits/(Pixel*Frame) : 0.104
Stream size : 1.26 GiB (92%)
Writing library : x264 core 148 r2744 b97ae06
Encoding settings : cabac=1 / ref=3 / deblock=1:0:0 / analyse=0x3:0x113 / me=hex / subme=7 / psy=1 / psy_rd=1.00:0.00 / mixed_ref=1 / me_range=16 / chroma_me=1 / trellis=1 / 8x8dct=1 / cqm=0 / deadzone=21,11 / fast_pskip=1 / chroma_qp_offset=-2 / threads=17 / lookahead_threads=2 / sliced_threads=0 / nr=0 / decimate=1 / interlaced=0 / bluray_compat=0 / constrained_intra=0 / bframes=3 / b_pyramid=2 / b_adapt=1 / b_bias=0 / direct=1 / weightb=1 / open_gop=0 / weightp=2 / keyint=150 / keyint_min=15 / scenecut=40 / intra_refresh=0 / rc_lookahead=40 / rc=2pass / mbtree=1 / bitrate=1088 / ratetol=1.0 / qcomp=0.60 / qpmin=0 / qpmax=69 / qpstep=4 / cplxblur=20.0 / qblur=0.5 / ip_ratio=1.40 / aq=1:1.00
Language : Telugu
Default : Yes
Forced : No

Audio
ID : 2
Format : MPEG Audio
Format version : Version 1
Format profile : Layer 3
Mode : Joint stereo
Mode extension : MS Stereo
Codec ID : A_MPEG/L3
Codec ID/Hint : MP3
Duration : 2 h 45 min
Bit rate mode : Variable
Bit rate : 96.0 kb/s
Channel(s) : 2 channels
Sampling rate : 48.0 kHz
Frame rate : 41.667 FPS (1152 SPF)
Compression mode : Lossy
Stream size : 115 MiB (8%)
Writing library : LAME3.99r
Encoding settings : -m j -V 4 -q 3 -lowpass 15.1 --abr 96
Language : Telugu
Default : Yes
Forced : No



https://extraimage.net/images/2017/11/09/9b36e2c55869b3da3db1fb9fc665d652.pnghttps://extraimage.net/images/2017/11/09/f9924720e083dca727c02cca72d24116.pnghttps://extraimage.net/images/2017/11/09/d443f2045c6a752848b1b6eafb743072.pnghttps://extraimage.net/images/2017/11/09/64267428f6fea5018341fbe388b4e6b6.pnghttps://extraimage.net/images/2017/11/09/8239d878b5207591afe4063db48dceaf.pnghttps://extraimage.net/images/2017/11/09/8a28e80d30e354c03ce17dbb0298466b.png


SINGLE DIRECT FAST LINKS



http://www.heroupload.com/d99d67a6174b498f/Adirindhi.2017.Telugu.PreDVD.720p.x264.Line.Audio. MP3-TMV.mkv



http://filefloater.com/99W/Adirindhi.2017.Telugu.PreDVD.720p.x264.Line.Audio. MP3-TMV.mkv