PDA

View Full Version : Mr. Karthik (2017) 1080p - HDRip - x264 - MP3 [Dual Audio][Telugu+Tamil] - TMV



wroser
11-03-2017, 10:10 AM
https://i.imgur.com/eFiOJ1c.jpg






General
Format : Matroska
Format version : Version 4 / Version 2
File size : 2.38 GiB
Duration : 2 h 21 min
Overall bit rate mode : Variable
Overall bit rate : 2 404 kb/s
Encoded date : UTC 2017-11-02 09:33:02
Writing application : mkvmerge v7.0.0 ('Where We Going') 32bit built on Jun 9 2014 15:08:34
Writing library : libebml v1.3.0 + libmatroska v1.4.1

Video
ID : 1
Format : AVC
Format/Info : Advanced Video Codec
Format profile : High@L4
Format settings, CABAC : Yes
Format settings, RefFrames : 4 frames
Codec ID : V_MPEG4/ISO/AVC
Duration : 2 h 21 min
Bit rate : 2 242 kb/s
Width : 1 920 pixels
Height : 816 pixels
Display aspect ratio : 2.35:1
Frame rate mode : Constant
Frame rate : 30.000 FPS
Color space : YUV
Chroma subsampling : 4:2:0
Bit depth : 8 bits
Scan type : Progressive
Bits/(Pixel*Frame) : 0.048
Stream size : 2.22 GiB (93%)
Writing library : x264 core 148 r2744 b97ae06
Encoding settings : cabac=1 / ref=3 / deblock=1:0:0 / analyse=0x3:0x113 / me=hex / subme=7 / psy=1 / psy_rd=1.00:0.00 / mixed_ref=1 / me_range=16 / chroma_me=1 / trellis=1 / 8x8dct=1 / cqm=0 / deadzone=21,11 / fast_pskip=1 / chroma_qp_offset=-2 / threads=25 / lookahead_threads=4 / sliced_threads=0 / nr=0 / decimate=1 / interlaced=0 / bluray_compat=0 / constrained_intra=0 / bframes=3 / b_pyramid=2 / b_adapt=1 / b_bias=0 / direct=1 / weightb=1 / open_gop=0 / weightp=2 / keyint=300 / keyint_min=30 / scenecut=40 / intra_refresh=0 / rc_lookahead=40 / rc=2pass / mbtree=1 / bitrate=2242 / ratetol=1.0 / qcomp=0.60 / qpmin=0 / qpmax=69 / qpstep=4 / cplxblur=20.0 / qblur=0.5 / ip_ratio=1.40 / aq=1:1.00
Language : Tamil
Default : Yes
Forced : No

Audio #1
ID : 2
Format : MPEG Audio
Format version : Version 1
Format profile : Layer 3
Mode : Joint stereo
Mode extension : MS Stereo
Codec ID : A_MPEG/L3
Codec ID/Hint : MP3
Duration : 2 h 21 min
Bit rate mode : Variable
Bit rate : 96.0 kb/s
Channel(s) : 2 channels
Sampling rate : 44.1 kHz
Frame rate : 38.281 FPS (1152 SPF)
Compression mode : Lossy
Stream size : 100.0 MiB (4%)
Writing library : LAME3.99r
Encoding settings : -m j -V 4 -q 3 -lowpass 15.1 --abr 96
Language : Telugu
Default : Yes
Forced : No

Audio #2
ID : 3
Format : MPEG Audio
Format version : Version 1
Format profile : Layer 3
Mode : Joint stereo
Mode extension : MS Stereo
Codec ID : A_MPEG/L3
Codec ID/Hint : MP3
Duration : 2 h 21 min
Bit rate mode : Variable
Bit rate : 64.0 kb/s
Channel(s) : 2 channels
Sampling rate : 44.1 kHz
Frame rate : 38.281 FPS (1152 SPF)
Compression mode : Lossy
Stream size : 65.2 MiB (3%)
Writing library : LAME3.99r
Encoding settings : -m j -V 4 -q 3 -lowpass 11 --abr 64
Language : Tamil
Default : No
Forced : No


https://extraimage.net/images/2017/11/02/261df2933f0e6170d9d311e1f3f9e761.pnghttps://extraimage.net/images/2017/11/02/b79fd82c16be47f7b586dfc4f9171c80.pnghttps://extraimage.net/images/2017/11/02/7df6b3ec2d1fd8248d16445cde3acc83.pnghttps://extraimage.net/images/2017/11/02/054dcfe58a9d6fd0280f36f59bd1dfec.pnghttps://extraimage.net/images/2017/11/02/00f86a1bed6b9dd70621ab5b14d317f5.png

SINGLE DIRECT FAST LINKS

http://www.heroupload.com/53df659d5af04d9e/Mr.Karthik.2017.HDRip.1080p.x264.Telugu.Line+Tamil-TMV.mkv


http://filefloater.com/6sp/Mr.Karthik.2017.HDRip.1080p.x264.Telugu.Line+Tamil-TMV.mkv
700MB LINKS


http://www.heroupload.com/0582b2ebbedc9eca/Mr.Karthik.2017.HDRip.1080p.x264.Telugu.Line+Tamil-TMV.part1.rar
http://www.heroupload.com/3445f67afb0a6d70/Mr.Karthik.2017.HDRip.1080p.x264.Telugu.Line+Tamil-TMV.part2.rar
http://www.heroupload.com/9135d6c78ee7e8d0/Mr.Karthik.2017.HDRip.1080p.x264.Telugu.Line+Tamil-TMV.part3.rar
http://www.heroupload.com/d0afa769aaff09a0/Mr.Karthik.2017.HDRip.1080p.x264.Telugu.Line+Tamil-TMV.part4.rar




http://filefloater.com/6sq/Mr.Karthik.2017.HDRip.1080p.x264.Telugu.Line+Tamil-TMV.part1.rar
http://filefloater.com/6sr/Mr.Karthik.2017.HDRip.1080p.x264.Telugu.Line+Tamil-TMV.part2.rar
http://filefloater.com/6ss/Mr.Karthik.2017.HDRip.1080p.x264.Telugu.Line+Tamil-TMV.part3.rar
http://filefloater.com/6st/Mr.Karthik.2017.HDRip.1080p.x264.Telugu.Line+Tamil-TMV.part4.rar