PDA

View Full Version : Mr. Karthik (2017) 720p - HDRip - x264 - MP3 [Dual Audio][Telugu+Tamil] - TMV



wroser
11-03-2017, 10:05 AM
https://i.imgur.com/P3cszTs.png




General
Format : Matroska
Format version : Version 4 / Version 2
File size : 1.42 GiB
Duration : 2 h 21 min
Overall bit rate mode : Variable
Overall bit rate : 1 432 kb/s
Encoded date : UTC 2017-11-02 09:32:25
Writing application : mkvmerge v7.0.0 ('Where We Going') 32bit built on Jun 9 2014 15:08:34
Writing library : libebml v1.3.0 + libmatroska v1.4.1

Video
ID : 1
Format : AVC
Format/Info : Advanced Video Codec
Format profile : High@L3.1
Format settings, CABAC : Yes
Format settings, RefFrames : 4 frames
Codec ID : V_MPEG4/ISO/AVC
Duration : 2 h 21 min
Bit rate : 1 268 kb/s
Width : 1 280 pixels
Height : 544 pixels
Display aspect ratio : 2.35:1
Frame rate mode : Constant
Frame rate : 30.000 FPS
Color space : YUV
Chroma subsampling : 4:2:0
Bit depth : 8 bits
Scan type : Progressive
Bits/(Pixel*Frame) : 0.061
Stream size : 1.25 GiB (88%)
Writing library : x264 core 148 r2744 b97ae06
Encoding settings : cabac=1 / ref=3 / deblock=1:0:0 / analyse=0x3:0x113 / me=hex / subme=7 / psy=1 / psy_rd=1.00:0.00 / mixed_ref=1 / me_range=16 / chroma_me=1 / trellis=1 / 8x8dct=1 / cqm=0 / deadzone=21,11 / fast_pskip=1 / chroma_qp_offset=-2 / threads=17 / lookahead_threads=2 / sliced_threads=0 / nr=0 / decimate=1 / interlaced=0 / bluray_compat=0 / constrained_intra=0 / bframes=3 / b_pyramid=2 / b_adapt=1 / b_bias=0 / direct=1 / weightb=1 / open_gop=0 / weightp=2 / keyint=300 / keyint_min=30 / scenecut=40 / intra_refresh=0 / rc_lookahead=40 / rc=2pass / mbtree=1 / bitrate=1268 / ratetol=1.0 / qcomp=0.60 / qpmin=0 / qpmax=69 / qpstep=4 / cplxblur=20.0 / qblur=0.5 / ip_ratio=1.40 / aq=1:1.00
Language : Tamil
Default : Yes
Forced : No

Audio #1
ID : 2
Format : MPEG Audio
Format version : Version 1
Format profile : Layer 3
Mode : Joint stereo
Mode extension : MS Stereo
Codec ID : A_MPEG/L3
Codec ID/Hint : MP3
Duration : 2 h 21 min
Bit rate mode : Variable
Bit rate : 96.0 kb/s
Channel(s) : 2 channels
Sampling rate : 44.1 kHz
Frame rate : 38.281 FPS (1152 SPF)
Compression mode : Lossy
Stream size : 100.0 MiB (7%)
Writing library : LAME3.99r
Encoding settings : -m j -V 4 -q 3 -lowpass 15.1 --abr 96
Language : Telugu
Default : Yes
Forced : No

Audio #2
ID : 3
Format : MPEG Audio
Format version : Version 1
Format profile : Layer 3
Mode : Joint stereo
Mode extension : MS Stereo
Codec ID : A_MPEG/L3
Codec ID/Hint : MP3
Duration : 2 h 21 min
Bit rate mode : Variable
Bit rate : 64.0 kb/s
Channel(s) : 2 channels
Sampling rate : 44.1 kHz
Frame rate : 38.281 FPS (1152 SPF)
Compression mode : Lossy
Stream size : 65.2 MiB (4%)
Writing library : LAME3.99r
Encoding settings : -m j -V 4 -q 3 -lowpass 11 --abr 64
Language : Tamil
Default : No
Forced : No



https://extraimage.net/images/2017/11/02/b710922862c7987cf27ffbac7b319ab5.pnghttps://extraimage.net/images/2017/11/02/d175e19dd9921cb95ec406c7e6295e0c.pnghttps://extraimage.net/images/2017/11/02/38fa1d2da87833ac9734fd90594f3815.pnghttps://extraimage.net/images/2017/11/02/be6bfe7c42e2a4a31ac7c2bf52d7b1f7.pnghttps://extraimage.net/images/2017/11/02/2a6c4360299169e3c8503ac5905c5995.pnghttps://extraimage.net/images/2017/11/02/dd5ab187930f902ddf7d9a6db7ff43e5.png


SINGLE DIRECT FAST LINKS


http://www.heroupload.com/8a36c883cacca78a/Mr.Karthik.2017.HDRip.720p.x264.Telugu.Line+Tamil-TMV.mkv



http://filefloater.com/6so/Mr.Karthik.2017.HDRip.720p.x264.Telugu.Line+Tamil-TMV.mkv