PDA

View Full Version : Jayammu Nischayammu Raa (2016) Telugu - 1080p - WEB-HD - AVC - DD5.1-WR



wroser
11-01-2017, 02:41 PM
https://i.imgur.com/BY0mJ5k.jpg






General
Format : MPEG-4
Format profile : Base Media
Codec ID : isom (isom)
File size : 2.49 GiB
Duration : 2 h 36 min
Overall bit rate : 2 278 kb/s
Encoded date : UTC 2017-10-30 04:34:16
Tagged date : UTC 2017-10-30 04:34:16

Video
ID : 1
Format : AVC
Format/Info : Advanced Video Codec
Format profile : High@L4
Format settings, CABAC : Yes
Format settings, RefFrames : 4 frames
Codec ID : avc1
Codec ID/Info : Advanced Video Coding
Duration : 2 h 36 min
Bit rate : 2 114 kb/s
Maximum bit rate : 8 046 kb/s
Width : 1 920 pixels
Height : 1 080 pixels
Display aspect ratio : 16:9
Frame rate mode : Constant
Frame rate : 30.000 FPS
Color space : YUV
Chroma subsampling : 4:2:0
Bit depth : 8 bits
Scan type : Progressive
Bits/(Pixel*Frame) : 0.034
Stream size : 2.31 GiB (93%)
Writing library : x264 core 148 r2744 b97ae06
Encoding settings : cabac=1 / ref=3 / deblock=1:0:0 / analyse=0x3:0x113 / me=hex / subme=7 / psy=1 / psy_rd=1.00:0.00 / mixed_ref=1 / me_range=16 / chroma_me=1 / trellis=1 / 8x8dct=1 / cqm=0 / deadzone=21,11 / fast_pskip=1 / chroma_qp_offset=-2 / threads=34 / lookahead_threads=5 / sliced_threads=0 / nr=0 / decimate=1 / interlaced=0 / bluray_compat=0 / constrained_intra=0 / bframes=3 / b_pyramid=2 / b_adapt=1 / b_bias=0 / direct=1 / weightb=1 / open_gop=0 / weightp=2 / keyint=300 / keyint_min=30 / scenecut=40 / intra_refresh=0 / rc_lookahead=40 / rc=2pass / mbtree=1 / bitrate=2114 / ratetol=1.0 / qcomp=0.60 / qpmin=0 / qpmax=69 / qpstep=4 / cplxblur=20.0 / qblur=0.5 / ip_ratio=1.40 / aq=1:1.00
Encoded date : UTC 2017-10-29 21:18:54
Tagged date : UTC 2017-10-30 04:34:23

Audio
ID : 2
Format : AC-3
Format/Info : Audio Coding 3
Format settings, Endianness : Big
Codec ID : ac-3
Duration : 2 h 36 min
Bit rate mode : Constant
Bit rate : 160 kb/s
Maximum bit rate : 167 kb/s
Channel(s) : 6 channels
Channel positions : Front: L C R, Side: L R, LFE
Sampling rate : 44.1 kHz
Frame rate : 28.711 FPS (1536 SPF)
Bit depth : 16 bits
Compression mode : Lossy
Stream size : 179 MiB (7%)
Language : Telugu
Service kind : Complete Main
Encoded date : UTC 2017-10-30 04:34:21
Tagged date : UTC 2017-10-30 04:34:23




https://extraimage.net/images/2017/10/30/207ee0ee1b8852536945a0f1f4cb9f8f.pnghttps://extraimage.net/images/2017/10/30/f953e8326d47077df028fcb69e3e7530.pnghttps://extraimage.net/images/2017/10/30/fd3fcb7977845c2ea1707f34233fc395.pnghttps://extraimage.net/images/2017/10/30/df17fb3d7be07b68c7fa65861b2a3a2e.png



SINGLE DIRECT FAST LINKS

http://www.heroupload.com/b801cccd2af9f959/Jayammu.Nischayammu.Raa.2016.Telugu.WEB-HD.1080p.AVC.AC3-WarezRock.mp4


http://filefloater.com/6q6/Jayammu.Nischayammu.Raa.2016.Telugu.WEB-HD.1080p.AVC.AC3-WarezRock.mp4
700MB LINKS


http://www.heroupload.com/3e3a0752571e04a6/Jayammu.Nischayammu.Raa.2016.Telugu.WEB-HD.1080p.AVC.AC3-WarezRock.part1.rar
http://www.heroupload.com/b89f468d9ada650a/Jayammu.Nischayammu.Raa.2016.Telugu.WEB-HD.1080p.AVC.AC3-WarezRock.part2.rar
http://www.heroupload.com/9d203c5deb9a4430/Jayammu.Nischayammu.Raa.2016.Telugu.WEB-HD.1080p.AVC.AC3-WarezRock.part3.rar
http://www.heroupload.com/f3974a6a4f6ecf9d/Jayammu.Nischayammu.Raa.2016.Telugu.WEB-HD.1080p.AVC.AC3-WarezRock.part4.rar



http://filefloater.com/6q7/Jayammu.Nischayammu.Raa.2016.Telugu.WEB-HD.1080p.AVC.AC3-WarezRock.part1.rar
http://filefloater.com/6q8/Jayammu.Nischayammu.Raa.2016.Telugu.WEB-HD.1080p.AVC.AC3-WarezRock.part2.rar
http://filefloater.com/6q9/Jayammu.Nischayammu.Raa.2016.Telugu.WEB-HD.1080p.AVC.AC3-WarezRock.part3.rar
http://filefloater.com/6qa/Jayammu.Nischayammu.Raa.2016.Telugu.WEB-HD.1080p.AVC.AC3-WarezRock.part4.rar