PDA

View Full Version : Thrissivaperoor Kliptham (2017) Malayalam - 700MB - 1CRip - HDTV-Rip - XviD - MP3-Exc



wroser
10-29-2017, 09:49 PM
https://i.imgur.com/DCfoTLu.jpg








General
Format : AVI
Format/Info : Audio Video Interleave
File size : 710 MiB
Duration : 2 h 14 min
Overall bit rate mode : Variable
Overall bit rate : 736 kb/s

Video
ID : 0
Format : MPEG-4 Visual
Format profile : Advanced Simple@L5
Format settings, BVOP : 2
Format settings, QPel : No
Format settings, GMC : No warppoints
Format settings, Matrix : Default (H.263)
Codec ID : XVID
Codec ID/Hint : XviD
Duration : 2 h 14 min
Bit rate : 627 kb/s
Width : 704 pixels
Height : 296 pixels
Display aspect ratio : 2.40:1
Frame rate : 25.000 FPS
Color space : YUV
Chroma subsampling : 4:2:0
Bit depth : 8 bits
Scan type : Progressive
Compression mode : Lossy
Bits/(Pixel*Frame) : 0.120
Stream size : 605 MiB (85%)
Writing library : XviD 67

Audio
ID : 1
Format : MPEG Audio
Format version : Version 1
Format profile : Layer 3
Mode : Joint stereo
Mode extension : MS Stereo
Codec ID : 55
Codec ID/Hint : MP3
Duration : 2 h 14 min
Bit rate mode : Variable
Bit rate : 96.0 kb/s
Channel(s) : 2 channels
Sampling rate : 44.1 kHz
Compression mode : Lossy
Stream size : 93.2 MiB (13%)
Alignment : Aligned on interleaves
Interleave, duration : 26 ms (0.65 video frame)
Interleave, preload duratio : 185 ms
Writing library : LAME3.99r
Encoding settings : -m j -V 4 -q 3 -lowpass 15.1 --abr 96



https://extraimage.net/images/2017/10/29/df4dc2221b7a72ad781c71e0655312e0.pnghttps://extraimage.net/images/2017/10/29/df8fe4ae05f71add8c10ea1dc6c4b9ca.pnghttps://extraimage.net/images/2017/10/29/9ccd6dd6edc7001e58068aca1e82f976.pnghttps://extraimage.net/images/2017/10/29/577a01e70c1af53d4702ab53c0117cae.pnghttps://extraimage.net/images/2017/10/29/332d101d3d8aa85b7a5f32af53c85457.pnghttps://extraimage.net/images/2017/10/29/1713378f8150a88e83e19fa1826700e7.png



SINGLE DIRECT FAST LINKS


http://www.heroupload.com/12187c97f0901586/Thrissivaperoor.Kliptham.2017.Malayalam.HDTV-Rip.XviD.700MB.MP3-Exclusive.avi



http://filefloater.com/907/Thrissivaperoor.Kliptham.2017.Malayalam.HDTV-Rip.XviD.700MB.MP3-Exclusive.avi