PDA

View Full Version : Vunnadhi Okate Zindagi (2017) Telugu - 1080p - PreDVDRip - x264 - MP3-TMV



wroser
10-28-2017, 02:44 PM
https://i.imgur.com/hNk8dCy.jpg





General
Format : Matroska
Format version : Version 4 / Version 2
File size : 2.38 GiB
Duration : 2 h 25 min
Overall bit rate : 2 338 kb/s
Encoded date : UTC 2017-10-27 18:07:34
Writing application : mkvmerge v7.0.0 ('Where We Going') 32bit built on Jun 9 2014 15:08:34
Writing library : libebml v1.3.0 + libmatroska v1.4.1

Video
ID : 1
Format : AVC
Format/Info : Advanced Video Codec
Format profile : High@L4
Format settings, CABAC : Yes
Format settings, RefFrames : 4 frames
Codec ID : V_MPEG4/ISO/AVC
Duration : 2 h 25 min
Bit rate : 2 240 kb/s
Width : 1 920 pixels
Height : 816 pixels
Display aspect ratio : 2.35:1
Frame rate mode : Constant
Frame rate : 24.000 FPS
Color space : YUV
Chroma subsampling : 4:2:0
Bit depth : 8 bits
Scan type : Progressive
Bits/(Pixel*Frame) : 0.060
Stream size : 2.28 GiB (96%)
Writing library : x264 core 148 r2744 b97ae06
Encoding settings : cabac=1 / ref=3 / deblock=1:0:0 / analyse=0x3:0x113 / me=hex / subme=7 / psy=1 / psy_rd=1.00:0.00 / mixed_ref=1 / me_range=16 / chroma_me=1 / trellis=1 / 8x8dct=1 / cqm=0 / deadzone=21,11 / fast_pskip=1 / chroma_qp_offset=-2 / threads=25 / lookahead_threads=4 / sliced_threads=0 / nr=0 / decimate=1 / interlaced=0 / bluray_compat=0 / constrained_intra=0 / bframes=3 / b_pyramid=2 / b_adapt=1 / b_bias=0 / direct=1 / weightb=1 / open_gop=0 / weightp=2 / keyint=240 / keyint_min=24 / scenecut=40 / intra_refresh=0 / rc_lookahead=40 / rc=2pass / mbtree=1 / bitrate=2240 / ratetol=1.0 / qcomp=0.60 / qpmin=0 / qpmax=69 / qpstep=4 / cplxblur=20.0 / qblur=0.5 / ip_ratio=1.40 / aq=1:1.00
Language : Telugu
Default : Yes
Forced : No

Audio
ID : 2
Format : MPEG Audio
Format version : Version 1
Format profile : Layer 3
Mode : Joint stereo
Mode extension : MS Stereo
Codec ID : A_MPEG/L3
Codec ID/Hint : MP3
Duration : 2 h 25 min
Bit rate mode : Constant
Bit rate : 96.0 kb/s
Channel(s) : 2 channels
Sampling rate : 44.1 kHz
Frame rate : 38.281 FPS (1152 SPF)
Compression mode : Lossy
Stream size : 100 MiB (4%)
Writing library : LAME3.98
Language : Telugu
Default : Yes
Forced : No



https://extraimage.net/images/2017/10/27/c39ed9efe7011742e3b7d1357b15d7f9.pnghttps://extraimage.net/images/2017/10/27/785eae5319b3f0fe87476cca58930bed.pnghttps://extraimage.net/images/2017/10/27/94f9ecc0c3b8c1160353bc248b6f1f51.pnghttps://extraimage.net/images/2017/10/27/b50143722f9cf80f2d5963cc29cc25c6.pnghttps://extraimage.net/images/2017/10/27/6a97508f923497d7bf2a299fa021f93d.pnghttps://extraimage.net/images/2017/10/27/2707e91fd6a044e238ec1b2276092c25.png


SINGLE DIRECT FAST LINKS

http://www.heroupload.com/ba183ab8456dd4c4/Vunnadhi.Okate.Zindagi.2017.Telugu.1080p.x264.Line .Audio-TMV.mkv


http://filefloater.com/6nf/Vunnadhi.Okate.Zindagi.2017.Telugu.1080p.x264.Line .Audio-TMV.mkv
700MB LINKS


http://www.heroupload.com/d9e6c1ff382d260a/Vunnadhi.Okate.Zindagi.2017.Telugu.1080p.x264.Line .Audio-TMV.part1.rar
http://www.heroupload.com/796b4cdb160f5441/Vunnadhi.Okate.Zindagi.2017.Telugu.1080p.x264.Line .Audio-TMV.part2.rar
http://www.heroupload.com/16b77de9e57eb17c/Vunnadhi.Okate.Zindagi.2017.Telugu.1080p.x264.Line .Audio-TMV.part3.rar
http://www.heroupload.com/4672817bf6bc017a/Vunnadhi.Okate.Zindagi.2017.Telugu.1080p.x264.Line .Audio-TMV.part4.rar



http://filefloater.com/6ng/Vunnadhi.Okate.Zindagi.2017.Telugu.1080p.x264.Line .Audio-TMV.part1.rar
http://filefloater.com/6nh/Vunnadhi.Okate.Zindagi.2017.Telugu.1080p.x264.Line .Audio-TMV.part2.rar
http://filefloater.com/6ni/Vunnadhi.Okate.Zindagi.2017.Telugu.1080p.x264.Line .Audio-TMV.part3.rar
http://filefloater.com/6nj/Vunnadhi.Okate.Zindagi.2017.Telugu.1080p.x264.Line .Audio-TMV.part4.rar