PDA

View Full Version : Anando Brahma (2017) Telugu - 720p - WEB-HD - AVC - AC3 5.1 - TMV Exclusive



wroser
10-18-2017, 08:35 PM
https://i.imgur.com/qjqwl84.jpg






General
Format : MPEG-4
Format profile : Base Media
Codec ID : isom (isom)
File size : 1.87 GiB
Duration : 1 h 57 min
Overall bit rate : 2 284 kb/s
Encoded date : UTC 2017-10-17 07:00:02
Tagged date : UTC 2017-10-17 07:00:02

Video
ID : 1
Format : AVC
Format/Info : Advanced Video Codec
Format profile : High@L3.1
Format settings, CABAC : Yes
Format settings, RefFrames : 4 frames
Codec ID : avc1
Codec ID/Info : Advanced Video Coding
Duration : 1 h 57 min
Bit rate : 2 120 kb/s
Maximum bit rate : 12.9 Mb/s
Width : 1 280 pixels
Height : 720 pixels
Display aspect ratio : 16:9
Frame rate mode : Constant
Frame rate : 30.000 FPS
Color space : YUV
Chroma subsampling : 4:2:0
Bit depth : 8 bits
Scan type : Progressive
Bits/(Pixel*Frame) : 0.077
Stream size : 1.73 GiB (93%)
Writing library : x264 core 148 r2744 b97ae06
Encoding settings : cabac=1 / ref=3 / deblock=1:0:0 / analyse=0x3:0x113 / me=hex / subme=7 / psy=1 / psy_rd=1.00:0.00 / mixed_ref=1 / me_range=16 / chroma_me=1 / trellis=1 / 8x8dct=1 / cqm=0 / deadzone=21,11 / fast_pskip=1 / chroma_qp_offset=-2 / threads=22 / lookahead_threads=3 / sliced_threads=0 / nr=0 / decimate=1 / interlaced=0 / bluray_compat=0 / constrained_intra=0 / bframes=3 / b_pyramid=2 / b_adapt=1 / b_bias=0 / direct=1 / weightb=1 / open_gop=0 / weightp=2 / keyint=300 / keyint_min=30 / scenecut=40 / intra_refresh=0 / rc_lookahead=40 / rc=2pass / mbtree=1 / bitrate=2120 / ratetol=1.0 / qcomp=0.60 / qpmin=0 / qpmax=69 / qpstep=4 / cplxblur=20.0 / qblur=0.5 / ip_ratio=1.40 / aq=1:1.00
Encoded date : UTC 2017-10-16 16:16:03
Tagged date : UTC 2017-10-17 07:00:07

Audio
ID : 2
Format : AC-3
Format/Info : Audio Coding 3
Format settings, Endianness : Big
Codec ID : ac-3
Duration : 1 h 57 min
Bit rate mode : Constant
Bit rate : 160 kb/s
Maximum bit rate : 167 kb/s
Channel(s) : 6 channels
Channel positions : Front: L C R, Side: L R, LFE
Sampling rate : 44.1 kHz
Frame rate : 28.711 FPS (1536 SPF)
Bit depth : 16 bits
Compression mode : Lossy
Stream size : 134 MiB (7%)
Language : Telugu
Service kind : Complete Main
Encoded date : UTC 2017-10-17 07:00:05
Tagged date : UTC 2017-10-17 07:00:07



https://extraimage.net/images/2017/10/17/06bff1be1fbe8906916c7356e2995266.pnghttps://extraimage.net/images/2017/10/17/1bcb18e6e395147ec3b26a304018fca0.pnghttps://extraimage.net/images/2017/10/17/1ee5e8a45a4d0b16e9f8a55980b6189d.pnghttps://extraimage.net/images/2017/10/17/b03010c37e02ae9f14db1f66bf86d6da.pnghttps://extraimage.net/images/2017/10/17/bdccdcb25d4fae97280763e0df70b53a.png





Diwali Sale buy Premium with 50% Discount. Now Enjoy Premium Fast Speed and Support US.



SINGLE DIRECT FAST LINKS



http://www.heroupload.com/d71840a524699f68/Anando.Brahma.2017.Telugu.WEB-HD.720p.AVC.AC3.5.1-TMV.mp4



http://filefloater.com/6e2/Anando.Brahma.2017.Telugu.WEB-HD.720p.AVC.AC3.5.1-TMV.mp4