PDA

View Full Version : Katamarayudu (2017) Telugu Original - 720p - WEB-HD - AVC - DD5.1 - ESub-TMV



wroser
10-16-2017, 07:11 AM
http://i.imgur.com/Qk17wkJ.jpg





General
Format : Matroska
Format version : Version 4 / Version 2
File size : 1.66 GiB
Duration : 2 h 1 min
Overall bit rate : 1 961 kb/s
Encoded date : UTC 2017-10-15 17:59:19
Writing application : mkvmerge v7.0.0 ('Where We Going') 32bit built on Jun 9 2014 15:08:34
Writing library : libebml v1.3.0 + libmatroska v1.4.1

Video
ID : 1
Format : AVC
Format/Info : Advanced Video Codec
Format profile : Main@L3.1
Format settings, CABAC : Yes
Format settings, RefFrames : 3 frames
Codec ID : V_MPEG4/ISO/AVC
Duration : 2 h 1 min
Bit rate : 1 799 kb/s
Width : 1 280 pixels
Height : 720 pixels
Display aspect ratio : 16:9
Frame rate mode : Constant
Frame rate : 25.000 FPS
Color space : YUV
Chroma subsampling : 4:2:0
Bit depth : 8 bits
Scan type : Progressive
Bits/(Pixel*Frame) : 0.078
Stream size : 1.53 GiB (92%)
Language : Telugu
Default : Yes
Forced : No
Color range : Limited
Color primaries : BT.709
Transfer characteristics : BT.709
Matrix coefficients : BT.709

Audio
ID : 2
Format : AC-3
Format/Info : Audio Coding 3
Format settings, Endianness : Big
Codec ID : A_AC3
Duration : 2 h 1 min
Bit rate mode : Constant
Bit rate : 160 kb/s
Channel(s) : 6 channels
Channel positions : Front: L C R, Side: L R, LFE
Sampling rate : 44.1 kHz
Frame rate : 28.711 FPS (1536 SPF)
Bit depth : 16 bits
Compression mode : Lossy
Stream size : 139 MiB (8%)
Language : Telugu
Service kind : Complete Main
Default : Yes
Forced : No

Text
ID : 3
Format : UTF-8
Codec ID : S_TEXT/UTF8
Codec ID/Info : UTF-8 Plain Text
Duration : 2 h 0 min
Bit rate : 65 b/s
Count of elements : 1736
Stream size : 57.9 KiB (0%)
Language : English
Default : Yes
Forced : No



https://extraimage.net/images/2017/07/15/1776827cbf3cfb12ca3a2a31c942cb8d.pnghttps://extraimage.net/images/2017/07/15/3c84297e2ef74e5a01d28ee601e6af33.pnghttps://extraimage.net/images/2017/07/15/f48a5bea44047138037bec39d41aab22.pnghttps://extraimage.net/images/2017/07/15/4fb5e04539b9981f63001565d54710d0.png




Buy Premium and Support Us.


Single Direct Fast Link



http://www.heroupload.com/ce688f454221a811/Katamarayudu.2017.Telugu.WEB-HD.720p.AVC.Original.Aud.5.1.ESub-TMV.mkv
http://www.heroupload.com/762f363b837c446e/Katamarayudu.2017.Telugu.WEB-HD.720p.AVC.Original.Aud.5.1.ESub-TMV.srt




http://filefloater.com/8NT/Katamarayudu.2017.Telugu.WEB-HD.720p.AVC.Original.Aud.5.1.ESub-TMV.mkv
http://filefloater.com/8NU/Katamarayudu.2017.Telugu.WEB-HD.720p.AVC.Original.Aud.5.1.ESub-TMV.srt