PDA

View Full Version : Rudhramadevi (2015) 720p - HDRip - x264 - DD5.1 - ESub [Dual Audio][Telugu+Tamil] TMV



wroser
10-16-2017, 07:03 AM
https://i.imgur.com/yEJHled.jpg








General
Format : Matroska
Format version : Version 4 / Version 2
File size : 1.49 GiB
Duration : 2 h 36 min
Overall bit rate mode : Variable
Overall bit rate : 1 363 kb/s
Encoded date : UTC 2017-10-15 12:32:06
Writing application : mkvmerge v7.0.0 ('Where We Going') 32bit built on Jun 9 2014 15:08:34
Writing library : libebml v1.3.0 + libmatroska v1.4.1

Video
ID : 1
Format : AVC
Format/Info : Advanced Video Codec
Format profile : High@L3.1
Format settings, CABAC : Yes
Format settings, RefFrames : 4 frames
Codec ID : V_MPEG4/ISO/AVC
Duration : 2 h 36 min
Bit rate : 1 140 kb/s
Width : 1 280 pixels
Height : 528 pixels
Display aspect ratio : 2.40:1
Frame rate mode : Constant
Frame rate : 24.000 FPS
Color space : YUV
Chroma subsampling : 4:2:0
Bit depth : 8 bits
Scan type : Progressive
Bits/(Pixel*Frame) : 0.070
Stream size : 1.24 GiB (84%)
Writing library : x264 core 148 r2744 b97ae06
Encoding settings : cabac=1 / ref=3 / deblock=1:0:0 / analyse=0x3:0x113 / me=hex / subme=7 / psy=1 / psy_rd=1.00:0.00 / mixed_ref=1 / me_range=16 / chroma_me=1 / trellis=1 / 8x8dct=1 / cqm=0 / deadzone=21,11 / fast_pskip=1 / chroma_qp_offset=-2 / threads=16 / lookahead_threads=2 / sliced_threads=0 / nr=0 / decimate=1 / interlaced=0 / bluray_compat=0 / constrained_intra=0 / bframes=3 / b_pyramid=2 / b_adapt=1 / b_bias=0 / direct=1 / weightb=1 / open_gop=0 / weightp=2 / keyint=240 / keyint_min=24 / scenecut=40 / intra_refresh=0 / rc_lookahead=40 / rc=2pass / mbtree=1 / bitrate=1140 / ratetol=1.0 / qcomp=0.60 / qpmin=0 / qpmax=69 / qpstep=4 / cplxblur=20.0 / qblur=0.5 / ip_ratio=1.40 / aq=1:1.00
Language : Tamil
Default : Yes
Forced : No

Audio #1
ID : 2
Format : AC-3
Format/Info : Audio Coding 3
Format settings, Endianness : Big
Codec ID : A_AC3
Duration : 2 h 36 min
Bit rate mode : Constant
Bit rate : 160 kb/s
Channel(s) : 6 channels
Channel positions : Front: L C R, Side: L R, LFE
Sampling rate : 44.1 kHz
Frame rate : 28.711 FPS (1536 SPF)
Bit depth : 16 bits
Compression mode : Lossy
Stream size : 179 MiB (12%)
Language : Telugu
Service kind : Complete Main
Default : Yes
Forced : No

Audio #2
ID : 3
Format : MPEG Audio
Format version : Version 1
Format profile : Layer 3
Mode : Joint stereo
Mode extension : MS Stereo
Codec ID : A_MPEG/L3
Codec ID/Hint : MP3
Duration : 2 h 36 min
Bit rate mode : Variable
Bit rate : 60.1 kb/s
Nominal bit rate : 48.0 kb/s
Channel(s) : 2 channels
Sampling rate : 44.1 kHz
Frame rate : 38.281 FPS (1152 SPF)
Compression mode : Lossy
Stream size : 67.1 MiB (4%)
Writing library : LAME3.99r
Encoding settings : -m j -V 4 -q 3 -lowpass 7.5 --abr 48
Language : Tamil
Default : No
Forced : No

Text
ID : 4
Format : UTF-8
Codec ID : S_TEXT/UTF8
Codec ID/Info : UTF-8 Plain Text
Duration : 2 h 34 min
Bit rate : 48 b/s
Count of elements : 1464
Stream size : 54.9 KiB (0%)
Language : English
Default : Yes
Forced : No


https://extraimage.net/images/2017/10/15/9c000862ef45cbf5e4c7e11a325828df.pnghttps://extraimage.net/images/2017/10/15/d03175f8274c59b486263b2cdcda739e.pnghttps://extraimage.net/images/2017/10/15/f6cc3a46571b437e3f789a3c9c4221d0.pnghttps://extraimage.net/images/2017/10/15/f36a27e7911f2c103ab1365d1e9a66ca.png


Buy Premium and Support Us.


Single Direct Fast Link


http://www.heroupload.com/9297c8c507b4f3bc/Rudhramadevi.2015.Telugu.HDRip.720p.Telugu.Org+Tam il.ESub-TMV.mkv
http://www.heroupload.com/6b27a38fd42bf235/Rudhramadevi.2015.Telugu.HDRip.720p.Telugu.Org+Tam il.ESub-TMV.srt



http://filefloater.com/8O2/Rudhramadevi.2015.Telugu.HDRip.720p.Telugu.Org+Tam il.ESub-TMV.mkv
http://filefloater.com/8O3/Rudhramadevi.2015.Telugu.HDRip.720p.Telugu.Org+Tam il.ESub-TMV.srt