PDA

View Full Version : Raju Gari Gadhi 2 (2017) Telugu - 720p - PreDVDRip - x264 - MP3-TMV



wroser
10-13-2017, 07:18 PM
https://i.imgur.com/050psbX.jpg







General
Format : Matroska
Format version : Version 4 / Version 2
File size : 1.39 GiB
Duration : 1 h 55 min
Overall bit rate mode : Variable
Overall bit rate : 1 726 kb/s
Encoded date : UTC 2017-10-13 12:44:50
Writing application : mkvmerge v7.0.0 ('Where We Going') 32bit built on Jun 9 2014 15:08:34
Writing library : libebml v1.3.0 + libmatroska v1.4.1

Video
ID : 1
Format : AVC
Format/Info : Advanced Video Codec
Format profile : High@L3.1
Format settings, CABAC : Yes
Format settings, RefFrames : 4 frames
Codec ID : V_MPEG4/ISO/AVC
Duration : 1 h 55 min
Bit rate : 1 626 kb/s
Width : 1 280 pixels
Height : 544 pixels
Display aspect ratio : 2.35:1
Frame rate mode : Constant
Frame rate : 15.000 FPS
Color space : YUV
Chroma subsampling : 4:2:0
Bit depth : 8 bits
Scan type : Progressive
Bits/(Pixel*Frame) : 0.156
Stream size : 1.31 GiB (94%)
Writing library : x264 core 148 r2744 b97ae06
Encoding settings : cabac=1 / ref=3 / deblock=1:0:0 / analyse=0x3:0x113 / me=hex / subme=7 / psy=1 / psy_rd=1.00:0.00 / mixed_ref=1 / me_range=16 / chroma_me=1 / trellis=1 / 8x8dct=1 / cqm=0 / deadzone=21,11 / fast_pskip=1 / chroma_qp_offset=-2 / threads=17 / lookahead_threads=2 / sliced_threads=0 / nr=0 / decimate=1 / interlaced=0 / bluray_compat=0 / constrained_intra=0 / bframes=3 / b_pyramid=2 / b_adapt=1 / b_bias=0 / direct=1 / weightb=1 / open_gop=0 / weightp=2 / keyint=150 / keyint_min=15 / scenecut=40 / intra_refresh=0 / rc_lookahead=40 / rc=2pass / mbtree=1 / bitrate=1626 / ratetol=1.0 / qcomp=0.60 / qpmin=0 / qpmax=69 / qpstep=4 / cplxblur=20.0 / qblur=0.5 / ip_ratio=1.40 / aq=1:1.00
Language : Telugu
Default : Yes
Forced : No

Audio
ID : 2
Format : MPEG Audio
Format version : Version 1
Format profile : Layer 3
Mode : Joint stereo
Mode extension : MS Stereo
Codec ID : A_MPEG/L3
Codec ID/Hint : MP3
Duration : 1 h 55 min
Bit rate mode : Variable
Bit rate : 96.0 kb/s
Channel(s) : 2 channels
Sampling rate : 48.0 kHz
Frame rate : 41.667 FPS (1152 SPF)
Compression mode : Lossy
Stream size : 81.0 MiB (6%)
Writing library : LAME3.99r
Encoding settings : -m j -V 4 -q 3 -lowpass 15.1 --abr 96
Language : Telugu
Default : Yes
Forced : No


https://extraimage.net/images/2017/10/13/5c60305cf934d4c0c6e5193a403148f3.jpghttps://extraimage.net/images/2017/10/13/688b3f7d4c92af76265c5f6ed7556bea.jpghttps://extraimage.net/images/2017/10/13/b7c6b2a214aaace651f0a85fd0a41b06.jpghttps://extraimage.net/images/2017/10/13/e9f97f4e0390e503b2553690c3b69e54.jpghttps://extraimage.net/images/2017/10/13/b644938a0f27ea77008735b89bfec0d7.jpghttps://extraimage.net/images/2017/10/13/126240fe1cc0521260e23438d97c0c88.jpg


SINGLE DIRECT FAST LINKS


http://www.heroupload.com/21ab448c8c1e2c1e/Raju.Gari.Gadhi.2.2017.Telugu.720p.x264.MP3-TMV.mkv



http://filefloater.com/3zf/Raju.Gari.Gadhi.2.2017.Telugu.720p.x264.MP3-TMV.mkv