PDA

View Full Version : Nenu Kidnap Ayyanu (2017) Telugu - 720p - HD-CAMRip - x264 - MP3-TMV



wroser
10-08-2017, 06:05 PM
https://i.imgur.com/wyh4jqU.jpg





General
Format : Matroska
Format version : Version 4 / Version 2
File size : 1.41 GiB
Duration : 2 h 2 min
Overall bit rate mode : Variable
Overall bit rate : 1 647 kb/s
Encoded date : UTC 2017-10-08 10:53:55
Writing application : mkvmerge v7.0.0 ('Where We Going') 32bit built on Jun 9 2014 15:08:34
Writing library : libebml v1.3.0 + libmatroska v1.4.1

Video
ID : 1
Format : AVC
Format/Info : Advanced Video Codec
Format profile : High@L3.1
Format settings, CABAC : Yes
Format settings, RefFrames : 4 frames
Codec ID : V_MPEG4/ISO/AVC
Duration : 2 h 2 min
Bit rate : 1 540 kb/s
Width : 1 280 pixels
Height : 560 pixels
Display aspect ratio : 2.25:1
Frame rate mode : Constant
Frame rate : 25.000 FPS
Color space : YUV
Chroma subsampling : 4:2:0
Bit depth : 8 bits
Scan type : Progressive
Bits/(Pixel*Frame) : 0.086
Stream size : 1.32 GiB (93%)
Writing library : x264 core 148 r2744 b97ae06
Encoding settings : cabac=1 / ref=3 / deblock=1:0:0 / analyse=0x3:0x113 / me=hex / subme=7 / psy=1 / psy_rd=1.00:0.00 / mixed_ref=1 / me_range=16 / chroma_me=1 / trellis=1 / 8x8dct=1 / cqm=0 / deadzone=21,11 / fast_pskip=1 / chroma_qp_offset=-2 / threads=17 / lookahead_threads=2 / sliced_threads=0 / nr=0 / decimate=1 / interlaced=0 / bluray_compat=0 / constrained_intra=0 / bframes=3 / b_pyramid=2 / b_adapt=1 / b_bias=0 / direct=1 / weightb=1 / open_gop=0 / weightp=2 / keyint=250 / keyint_min=25 / scenecut=40 / intra_refresh=0 / rc_lookahead=40 / rc=2pass / mbtree=1 / bitrate=1540 / ratetol=1.0 / qcomp=0.60 / qpmin=0 / qpmax=69 / qpstep=4 / cplxblur=20.0 / qblur=0.5 / ip_ratio=1.40 / aq=1:1.00
Language : Telugu
Default : Yes
Forced : No

Audio
ID : 2
Format : MPEG Audio
Format version : Version 1
Format profile : Layer 3
Mode : Joint stereo
Mode extension : MS Stereo
Codec ID : A_MPEG/L3
Codec ID/Hint : MP3
Duration : 2 h 2 min
Bit rate mode : Variable
Bit rate : 105 kb/s
Nominal bit rate : 96.0 kb/s
Channel(s) : 2 channels
Sampling rate : 48.0 kHz
Frame rate : 41.667 FPS (1152 SPF)
Compression mode : Lossy
Stream size : 92.2 MiB (6%)
Writing library : LAME3.99r
Encoding settings : -m j -V 4 -q 3 -lowpass 15.1 --abr 96
Language : Telugu
Default : Yes
Forced : No


https://extraimage.net/images/2017/10/08/96d7a6050625f02683ae42d12b5955b4.jpghttps://extraimage.net/images/2017/10/08/1fc8272dd8b6517adfd043ee9fc9c955.jpghttps://extraimage.net/images/2017/10/08/53e0c573796bcb135198e53ed6a949c0.jpghttps://extraimage.net/images/2017/10/08/265e02f13894fcbd3f4c03de33fdf040.jpghttps://extraimage.net/images/2017/10/08/f7eec557600f526b7e6550e60ac1a423.jpghttps://extraimage.net/images/2017/10/08/122e194f252f37d7b2008155c97f1848.jpg


SINGLE DIRECT FAST LINKS



http://www.heroupload.com/c51c6a2b5ccaae9d/Nenu.Kidnap.Ayyanu.2017.Telugu.720p.x264.MP3-TMV.mkv




http://filefloater.com/64V/Nenu.Kidnap.Ayyanu.2017.Telugu.720p.x264.MP3-TMV.mkv