PDA

View Full Version : Himalayathile Kashmalan (2017) Malayalam - 720p - WEB-HD - AVC - AAC-MTR



wroser
10-07-2017, 10:42 AM
https://i.imgur.com/x59xJoh.jpg






General
Format : MPEG-4
Format profile : Base Media
Codec ID : isom (isom)
File size : 1.54 GiB
Duration : 1 h 45 min
Overall bit rate mode : Variable
Overall bit rate : 2 089 kb/s
Encoded date : UTC 2017-10-06 08:00:14
Tagged date : UTC 2017-10-06 08:00:14
Writing application : MkvToMp4 [www.mkvtomp4.ru] version 0.224 (x64)

Video
ID : 1
Format : AVC
Format/Info : Advanced Video Codec
Format profile : Main@L3.1
Format settings, CABAC : Yes
Format settings, RefFrames : 4 frames
Codec ID : avc1
Codec ID/Info : Advanced Video Coding
Duration : 1 h 45 min
Bit rate : 1 956 kb/s
Nominal bit rate : 2 500 kb/s
Maximum bit rate : 3 474 kb/s
Width : 1 280 pixels
Height : 720 pixels
Display aspect ratio : 16:9
Frame rate mode : Constant
Frame rate : 25.000 FPS
Color space : YUV
Chroma subsampling : 4:2:0
Bit depth : 8 bits
Scan type : Progressive
Bits/(Pixel*Frame) : 0.085
Stream size : 1.44 GiB (94%)
Writing library : x264 core 148 r2694 3b70645
Encoding settings : cabac=1 / ref=3 / deblock=1:0:0 / analyse=0x1:0x111 / me=hex / subme=7 / psy=1 / psy_rd=1.00:0.00 / mixed_ref=1 / me_range=16 / chroma_me=1 / trellis=1 / 8x8dct=0 / cqm=0 / deadzone=21,11 / fast_pskip=1 / chroma_qp_offset=-2 / threads=22 / lookahead_threads=3 / sliced_threads=0 / nr=0 / decimate=1 / interlaced=0 / bluray_compat=0 / constrained_intra=0 / bframes=3 / b_pyramid=2 / b_adapt=1 / b_bias=0 / direct=1 / weightb=1 / open_gop=0 / weightp=2 / keyint=50 / keyint_min=26 / scenecut=0 / intra_refresh=0 / rc_lookahead=40 / rc=cbr / mbtree=1 / bitrate=2500 / ratetol=1.0 / qcomp=0.60 / qpmin=0 / qpmax=69 / qpstep=4 / vbv_maxrate=2500 / vbv_bufsize=2500 / nal_hrd=none / filler=0 / ip_ratio=1.40 / aq=1:1.00
Language : English
Tagged date : UTC 2017-10-06 08:00:18

Audio
ID : 2
Format : AAC
Format/Info : Advanced Audio Codec
Format profile : LC
Codec ID : 40
Duration : 1 h 45 min
Bit rate mode : Variable
Bit rate : 128 kb/s
Maximum bit rate : 166 kb/s
Channel(s) : 2 channels
Channel positions : Front: L R
Sampling rate : 44.1 kHz
Frame rate : 43.066 FPS (1024 SPF)
Compression mode : Lossy
Stream size : 96.7 MiB (6%)
Language : English
Default : Yes
Alternate group : 1
Encoded date : UTC 2017-10-06 08:00:16
Tagged date : UTC 2017-10-06 08:00:18




https://extraimage.net/images/2017/10/06/4a99f6fb5e6c963aeb00597670c3e7ea.pnghttps://extraimage.net/images/2017/10/06/1d81181688d8429b960050d807cb3e32.pnghttps://extraimage.net/images/2017/10/06/1af1381173fbd6835fd7ea325026afaa.pnghttps://extraimage.net/images/2017/10/06/591a7b64e636569f2f29baa254337046.png


SINGLE DIRECT FAST LINKS


http://www.heroupload.com/4a21828dd520cd70/Himalayathile.Kashmalan.2017.Malayalam.720p.HD.AVC .ESubs-MTR.mp4



http://filefloater.com/3t6/Himalayathile.Kashmalan.2017.Malayalam.720p.HD.AVC .ESubs-MTR.mp4