PDA

View Full Version : Theeram (2016) Malayalam - 720p - WEB-HD - AVC - AAC-MTR



wroser
10-07-2017, 10:37 AM
https://i.imgur.com/pQafGDO.jpg







General
Format : MPEG-4
Format profile : Base Media
Codec ID : isom (isom)
File size : 1.51 GiB
Duration : 1 h 46 min
Overall bit rate mode : Variable
Overall bit rate : 2 033 kb/s
Encoded date : UTC 2017-10-06 08:04:24
Tagged date : UTC 2017-10-06 08:04:24
Writing application : MkvToMp4 [www.mkvtomp4.ru] version 0.224 (x64)

Video
ID : 1
Format : AVC
Format/Info : Advanced Video Codec
Format profile : Main@L3.1
Format settings, CABAC : Yes
Format settings, RefFrames : 4 frames
Codec ID : avc1
Codec ID/Info : Advanced Video Coding
Duration : 1 h 46 min
Bit rate : 1 899 kb/s
Nominal bit rate : 2 500 kb/s
Maximum bit rate : 3 739 kb/s
Width : 1 280 pixels
Height : 720 pixels
Display aspect ratio : 16:9
Frame rate mode : Constant
Frame rate : 25.000 FPS
Color space : YUV
Chroma subsampling : 4:2:0
Bit depth : 8 bits
Scan type : Progressive
Bits/(Pixel*Frame) : 0.082
Stream size : 1.41 GiB (93%)
Writing library : x264 core 148 r2694 3b70645
Encoding settings : cabac=1 / ref=3 / deblock=1:0:0 / analyse=0x1:0x111 / me=hex / subme=7 / psy=1 / psy_rd=1.00:0.00 / mixed_ref=1 / me_range=16 / chroma_me=1 / trellis=1 / 8x8dct=0 / cqm=0 / deadzone=21,11 / fast_pskip=1 / chroma_qp_offset=-2 / threads=22 / lookahead_threads=3 / sliced_threads=0 / nr=0 / decimate=1 / interlaced=0 / bluray_compat=0 / constrained_intra=0 / bframes=3 / b_pyramid=2 / b_adapt=1 / b_bias=0 / direct=1 / weightb=1 / open_gop=0 / weightp=2 / keyint=50 / keyint_min=26 / scenecut=0 / intra_refresh=0 / rc_lookahead=40 / rc=cbr / mbtree=1 / bitrate=2500 / ratetol=1.0 / qcomp=0.60 / qpmin=0 / qpmax=69 / qpstep=4 / vbv_maxrate=2500 / vbv_bufsize=2500 / nal_hrd=none / filler=0 / ip_ratio=1.40 / aq=1:1.00
Language : English
Tagged date : UTC 2017-10-06 08:04:28

Audio
ID : 2
Format : AAC
Format/Info : Advanced Audio Codec
Format profile : LC
Codec ID : 40
Duration : 1 h 46 min
Bit rate mode : Variable
Bit rate : 129 kb/s
Maximum bit rate : 165 kb/s
Channel(s) : 2 channels
Channel positions : Front: L R
Sampling rate : 44.1 kHz
Frame rate : 43.066 FPS (1024 SPF)
Compression mode : Lossy
Stream size : 98.6 MiB (6%)
Language : English
Default : Yes
Alternate group : 1
Encoded date : UTC 2017-10-06 08:04:26
Tagged date : UTC 2017-10-06 08:04:28



https://extraimage.net/images/2017/10/06/32261e2731344586a2b8e1f842a6ab17.pnghttps://extraimage.net/images/2017/10/06/ada96fdbb63455d1bc1d9b5df9f640e8.pnghttps://extraimage.net/images/2017/10/06/dd39cb0f35689cb9005796b623b29b01.png


SINGLE DIRECT FAST LINKS



http://www.heroupload.com/98b3e41c4ee3790e/Theeram.2016.Malayalam.720p.HD.AVC.ESubs-MTR.mp4



http://filefloater.com/3tb/Theeram.2016.Malayalam.720p.HD.AVC.ESubs-MTR.mp4