PDA

View Full Version : Vivekam (2017) 1080p HDRip x264 HC-ESub [Multi Audio][Telugu+Tamil] - TMV



wroser
10-02-2017, 10:50 PM
https://i.imgur.com/AfFkFys.jpg





General
Format : Matroska
Format version : Version 4 / Version 2
File size : 2.41 GiB
Duration : 2 h 27 min
Overall bit rate mode : Variable
Overall bit rate : 2 329 kb/s
Encoded date : UTC 2017-09-30 09:38:05
Writing application : mkvmerge v7.0.0 ('Where We Going') 32bit built on Jun 9 2014 15:08:34
Writing library : libebml v1.3.0 + libmatroska v1.4.1

Video
ID : 1
Format : AVC
Format/Info : Advanced Video Codec
Format profile : High@L4
Format settings, CABAC : Yes
Format settings, RefFrames : 4 frames
Codec ID : V_MPEG4/ISO/AVC
Duration : 2 h 27 min
Bit rate : 2 142 kb/s
Width : 1 920 pixels
Height : 840 pixels
Display aspect ratio : 2.25:1
Frame rate mode : Constant
Frame rate : 24.000 FPS
Color space : YUV
Chroma subsampling : 4:2:0
Bit depth : 8 bits
Scan type : Progressive
Bits/(Pixel*Frame) : 0.055
Stream size : 2.21 GiB (92%)
Writing library : x264 core 148 r2744 b97ae06
Encoding settings : cabac=1 / ref=3 / deblock=1:0:0 / analyse=0x3:0x113 / me=hex / subme=7 / psy=1 / psy_rd=1.00:0.00 / mixed_ref=1 / me_range=16 / chroma_me=1 / trellis=1 / 8x8dct=1 / cqm=0 / deadzone=21,11 / fast_pskip=1 / chroma_qp_offset=-2 / threads=18 / lookahead_threads=3 / sliced_threads=0 / nr=0 / decimate=1 / interlaced=0 / bluray_compat=0 / constrained_intra=0 / bframes=3 / b_pyramid=2 / b_adapt=1 / b_bias=0 / direct=1 / weightb=1 / open_gop=0 / weightp=2 / keyint=240 / keyint_min=24 / scenecut=40 / intra_refresh=0 / rc_lookahead=40 / rc=2pass / mbtree=1 / bitrate=2142 / ratetol=1.0 / qcomp=0.60 / qpmin=0 / qpmax=69 / qpstep=4 / cplxblur=20.0 / qblur=0.5 / ip_ratio=1.40 / aq=1:1.00
Language : Tamil
Default : Yes
Forced : No

Audio #1
ID : 2
Format : MPEG Audio
Format version : Version 1
Format profile : Layer 3
Mode : Joint stereo
Mode extension : MS Stereo
Codec ID : A_MPEG/L3
Codec ID/Hint : MP3
Duration : 2 h 27 min
Bit rate mode : Variable
Bit rate : 96.0 kb/s
Channel(s) : 2 channels
Sampling rate : 44.1 kHz
Frame rate : 38.281 FPS (1152 SPF)
Compression mode : Lossy
Stream size : 101 MiB (4%)
Writing library : LAME3.99r
Encoding settings : -m j -V 4 -q 3 -lowpass 15.1 --abr 96
Language : Telugu
Default : Yes
Forced : No

Audio #2
ID : 3
Format : MPEG Audio
Format version : Version 1
Format profile : Layer 3
Mode : Joint stereo
Mode extension : MS Stereo
Codec ID : A_MPEG/L3
Codec ID/Hint : MP3
Duration : 2 h 27 min
Bit rate mode : Variable
Bit rate : 89.1 kb/s
Nominal bit rate : 96.0 kb/s
Channel(s) : 2 channels
Sampling rate : 48.0 kHz
Frame rate : 41.667 FPS (1152 SPF)
Compression mode : Lossy
Stream size : 94.3 MiB (4%)
Writing library : LAME3.99r
Encoding settings : -m j -V 4 -q 3 -lowpass 15.1 --abr 96
Language : Tamil
Default : No
Forced : No



https://extraimage.net/images/2017/09/30/7f65bbac4d0b93877a18e9d89cc27c06.pnghttps://extraimage.net/images/2017/09/30/23222aa70a27c648146e941980f59761.pnghttps://extraimage.net/images/2017/09/30/815d11b847dbfa86d172813ffac3ada0.pnghttps://extraimage.net/images/2017/09/30/6f990231cb971e39e24b73d6d270a74a.pnghttps://extraimage.net/images/2017/09/30/0cc5faa1f7bcd6e6645e8f83e2df6008.pnghttps://extraimage.net/images/2017/09/30/f5724888c8ed495caa6091ec09c9ad7d.pnghttps://extraimage.net/images/2017/09/30/6a70bb4a6bf4b1fff0210c99e7df6335.png


SINGLE DIRECT FAST LINKS


http://www.heroupload.com/435558b077b60e4a/Vivekam.2017.HDRip.1080p.Telugu.Line+Tamil.HC-ESub-TMV.mkv


http://filefloater.com/8Au/Vivekam.2017.HDRip.1080p.Telugu.Line+Tamil.HC-ESub-TMV.mkv
700MB LINKS



http://www.heroupload.com/3594b7edf3fb8565/Vivekam.2017.HDRip.1080p.Telugu.Line+Tamil.HC-ESub-TMV.part1.rar
http://www.heroupload.com/1c05055f82fc656d/Vivekam.2017.HDRip.1080p.Telugu.Line+Tamil.HC-ESub-TMV.part2.rar
http://www.heroupload.com/2ed0b76d7dd802f2/Vivekam.2017.HDRip.1080p.Telugu.Line+Tamil.HC-ESub-TMV.part3.rar
http://www.heroupload.com/d1e1e7357e0f50f8/Vivekam.2017.HDRip.1080p.Telugu.Line+Tamil.HC-ESub-TMV.part4.rar



http://filefloater.com/8Av/Vivekam.2017.HDRip.1080p.Telugu.Line+Tamil.HC-ESub-TMV.part1.rar
http://filefloater.com/8Aw/Vivekam.2017.HDRip.1080p.Telugu.Line+Tamil.HC-ESub-TMV.part2.rar
http://filefloater.com/8Ax/Vivekam.2017.HDRip.1080p.Telugu.Line+Tamil.HC-ESub-TMV.part3.rar
http://filefloater.com/8Ay/Vivekam.2017.HDRip.1080p.Telugu.Line+Tamil.HC-ESub-TMV.part4.rar