PDA

View Full Version : Mahanubhavudu (2017) Telugu - 700MB - 1CDRip - PreDVDRip - XviD - MP3-TMV



wroser
09-30-2017, 04:24 PM
https://i.imgur.com/9bobyQI.jpg









Format : AVI
Format/Info : Audio Video Interleave
File size : 700 MiB
Duration : 2 h 25 min
Overall bit rate mode : Variable
Overall bit rate : 674 kb/s

Video
ID : 0
Format : MPEG-4 Visual
Format profile : Advanced Simple@L5
Format settings, BVOP : 2
Format settings, QPel : No
Format settings, GMC : No warppoints
Format settings, Matrix : Default (H.263)
Codec ID : XVID
Codec ID/Hint : XviD
Duration : 2 h 25 min
Bit rate : 572 kb/s
Width : 704 pixels
Height : 296 pixels
Display aspect ratio : 2.40:1
Frame rate : 23.976 (24000/1001) FPS
Color space : YUV
Chroma subsampling : 4:2:0
Bit depth : 8 bits
Scan type : Progressive
Compression mode : Lossy
Bits/(Pixel*Frame) : 0.114
Stream size : 594 MiB (85%)
Writing library : XviD 67

Audio
ID : 1
Format : MPEG Audio
Format version : Version 1
Format profile : Layer 3
Mode : Joint stereo
Mode extension : MS Stereo
Codec ID : 55
Codec ID/Hint : MP3
Duration : 2 h 25 min
Bit rate mode : Variable
Bit rate : 89.5 kb/s
Nominal bit rate : 96.0 kb/s
Channel(s) : 2 channels
Sampling rate : 48.0 kHz
Compression mode : Lossy
Stream size : 93.0 MiB (13%)
Alignment : Aligned on interleaves
Interleave, duration : 24 ms (0.58 video frame)
Interleave, preload duratio : 220 ms
Writing library : LAME3.99r
Encoding settings : -m j -V 4 -q 3 -lowpass 15.1 --abr 96



https://extraimage.net/images/2017/09/30/de3ba03f85ac264a3bdfb4d1c59a8ff0.jpghttps://extraimage.net/images/2017/09/30/bb3337b305294da85bea03d3c8a343c4.jpghttps://extraimage.net/images/2017/09/30/3df4d2a5f905bb3f42371ff3d59692af.jpghttps://extraimage.net/images/2017/09/30/e90cd71b1ddb5ac8f4a73a52fe2fdb5f.jpghttps://extraimage.net/images/2017/09/30/5f069c809d5a3b4a885dab056797d6c3.jpghttps://extraimage.net/images/2017/09/30/05b73c84dfda0dfae96b42603d9c5259.jpg


SINGLE DIRECT FAST LINKS


http://www.heroupload.com/07bddd66e9770402/Mahanubhavudu.2017.Telugu.XviD.700MB.MP3-TMV.avi




http://filefloater.com/8zb/Mahanubhavudu.2017.Telugu.XviD.700MB.MP3-TMV.avi