PDA

View Full Version : Radha (2017) Telugu - 720p - WEB-HD - AVC - DD5.1-TMV



wroser
09-30-2017, 03:34 AM
https://i.imgur.com/kkN1cLB.jpg







General
Format : MPEG-4
Format profile : Base Media
Codec ID : isom (isom)
File size : 1.96 GiB
Duration : 2 h 1 min
Overall bit rate : 2 311 kb/s
Encoded date : UTC 2017-09-29 19:03:06
Tagged date : UTC 2017-09-29 19:03:06

Video
ID : 1
Format : AVC
Format/Info : Advanced Video Codec
Format profile : High@L3.1
Format settings, CABAC : Yes
Format settings, RefFrames : 4 frames
Codec ID : avc1
Codec ID/Info : Advanced Video Coding
Duration : 2 h 1 min
Bit rate : 2 148 kb/s
Maximum bit rate : 9 012 kb/s
Width : 1 280 pixels
Height : 720 pixels
Display aspect ratio : 16:9
Frame rate mode : Constant
Frame rate : 25.000 FPS
Color space : YUV
Chroma subsampling : 4:2:0
Bit depth : 8 bits
Scan type : Progressive
Bits/(Pixel*Frame) : 0.093
Stream size : 1.82 GiB (93%)
Writing library : x264 core 148 r2744 b97ae06
Encoding settings : cabac=1 / ref=3 / deblock=1:0:0 / analyse=0x3:0x113 / me=hex / subme=7 / psy=1 / psy_rd=1.00:0.00 / mixed_ref=1 / me_range=16 / chroma_me=1 / trellis=1 / 8x8dct=1 / cqm=0 / deadzone=21,11 / fast_pskip=1 / chroma_qp_offset=-2 / threads=18 / lookahead_threads=3 / sliced_threads=0 / nr=0 / decimate=1 / interlaced=0 / bluray_compat=0 / constrained_intra=0 / bframes=3 / b_pyramid=2 / b_adapt=1 / b_bias=0 / direct=1 / weightb=1 / open_gop=0 / weightp=2 / keyint=250 / keyint_min=25 / scenecut=40 / intra_refresh=0 / rc_lookahead=40 / rc=2pass / mbtree=1 / bitrate=2148 / ratetol=1.0 / qcomp=0.60 / qpmin=0 / qpmax=69 / qpstep=4 / cplxblur=20.0 / qblur=0.5 / ip_ratio=1.40 / aq=1:1.00
Encoded date : UTC 2017-09-29 18:48:14
Tagged date : UTC 2017-09-29 19:03:10

Audio
ID : 2
Format : AC-3
Format/Info : Audio Coding 3
Format settings, Endianness : Big
Codec ID : ac-3
Duration : 2 h 1 min
Bit rate mode : Constant
Bit rate : 160 kb/s
Maximum bit rate : 167 kb/s
Channel(s) : 6 channels
Channel positions : Front: L C R, Side: L R, LFE
Sampling rate : 44.1 kHz
Frame rate : 28.711 FPS (1536 SPF)
Bit depth : 16 bits
Compression mode : Lossy
Stream size : 139 MiB (7%)
Language : Telugu
Service kind : Complete Main
Encoded date : UTC 2017-09-29 19:03:09
Tagged date : UTC 2017-09-29 19:03:10



https://extraimage.net/images/2017/09/29/8dcaa66943166ee548117316824161e6.pnghttps://extraimage.net/images/2017/09/29/03b31556dd38e3d705ad7ee6ff572512.pnghttps://extraimage.net/images/2017/09/29/f94d8dabaa88f7dbcb8314349660871b.pnghttps://extraimage.net/images/2017/09/29/d4d8981d2dd5f0049b84169d2a5e0a0d.pnghttps://extraimage.net/images/2017/09/29/6c647105e53fef349d6ecdff02130218.png


SINGLE DIRECT FAST LINKS


http://www.heroupload.com/94550e5b677d5c4c/Radha.2017.Telugu.WEB-HD.720p.AVC.AC3-TMV.mp4



http://filefloater.com/8yw/Radha.2017.Telugu.WEB-HD.720p.AVC.AC3-TMV.mp4