PDA

View Full Version : Chicken Kokkachi (2017) Malayalam - 700MB - 1CDRip - DVDRip - x264 - AAC-Exclusive



wroser
09-30-2017, 03:26 AM
https://i.imgur.com/43ZrlMR.jpg





General
Format : Matroska
Format version : Version 4 / Version 2
File size : 707 MiB
Duration : 1 h 55 min
Overall bit rate : 852 kb/s
Encoded date : UTC 2017-09-29 15:03:33
Writing application : mkvmerge v7.0.0 ('Where We Going') 32bit built on Jun 9 2014 15:08:34
Writing library : libebml v1.3.0 + libmatroska v1.4.1

Video
ID : 1
Format : AVC
Format/Info : Advanced Video Codec
Format profile : High@L2.1
Format settings, CABAC : Yes
Format settings, RefFrames : 4 frames
Codec ID : V_MPEG4/ISO/AVC
Duration : 1 h 55 min
Bit rate : 663 kb/s
Width : 640 pixels
Height : 272 pixels
Display aspect ratio : 2.35:1
Frame rate mode : Variable
Frame rate : 23.976 FPS
Color space : YUV
Chroma subsampling : 4:2:0
Bit depth : 8 bits
Scan type : Progressive
Bits/(Pixel*Frame) : 0.159
Stream size : 546 MiB (77%)
Writing library : x264 core 148 r2643 5c65704
Encoding settings : cabac=1 / ref=1 / deblock=1:0:0 / analyse=0x3:0x3 / me=dia / subme=1 / psy=1 / psy_rd=1.00:0.00 / mixed_ref=0 / me_range=16 / chroma_me=1 / trellis=0 / 8x8dct=1 / cqm=0 / deadzone=21,11 / fast_pskip=1 / chroma_qp_offset=0 / threads=8 / lookahead_threads=1 / sliced_threads=0 / nr=0 / decimate=1 / interlaced=0 / bluray_compat=0 / constrained_intra=0 / bframes=3 / b_pyramid=2 / b_adapt=1 / b_bias=0 / direct=1 / weightb=1 / open_gop=0 / weightp=1 / keyint=250 / keyint_min=25 / scenecut=40 / intra_refresh=0 / rc=abr / mbtree=0 / bitrate=663 / ratetol=1.0 / qcomp=0.60 / qpmin=0 / qpmax=69 / qpstep=4 / ip_ratio=1.40 / pb_ratio=1.30 / aq=1:1.00
Language : Malayalam
Default : Yes
Forced : No

Audio
ID : 2
Format : AAC
Format/Info : Advanced Audio Codec
Format profile : LC
Codec ID : A_AAC
Duration : 1 h 55 min
Bit rate : 192 kb/s
Channel(s) : 2 channels
Channel positions : Front: L R
Sampling rate : 44.1 kHz
Frame rate : 43.066 FPS (1024 SPF)
Compression mode : Lossy
Stream size : 159 MiB (23%)
Language : Malayalam
Default : Yes
Forced : No


https://extraimage.net/images/2017/09/29/a832cac9fe1cf7caf9b46004bc9fa1ca.pnghttps://extraimage.net/images/2017/09/29/2ac180f05fbae766149b649f0f090147.pnghttps://extraimage.net/images/2017/09/29/98e9863786b66e808557dd6e74653aa2.pnghttps://extraimage.net/images/2017/09/29/869858a700eafb5e38bfa84f6aa70d82.pnghttps://extraimage.net/images/2017/09/29/60ba0394bc2d2ff9d3380abb222596f1.png

SINGLE DIRECT FAST LINKS

http://www.heroupload.com/92bee0b71ad30a31/Chicken.Kokkachi.2017.Malayalam.DVDRip.700MB.x264. 1CD.AAC-Exclusive.mkv


http://filefloater.com/8yc/Chicken.Kokkachi.2017.Malayalam.DVDRip.700MB.x264. 1CD.AAC-Exclusive.mkv