PDA

View Full Version : Rarandoi Veduka Chudham (2017) Telugu - 720p - SDTV-Rip - x264 - DD5.1-TMV



wroser
09-27-2017, 01:08 AM
https://extraimage.net/images/2017/09/24/30f2b2028d95a8ae94b886e593e8b0b8.jpg





General
Format : Matroska
Format version : Version 4 / Version 2
File size : 1.40 GiB
Duration : 2 h 15 min
Overall bit rate : 1 482 kb/s
Encoded date : UTC 2017-09-23 18:01:17
Writing application : mkvmerge v7.0.0 ('Where We Going') 32bit built on Jun 9 2014 15:08:34
Writing library : libebml v1.3.0 + libmatroska v1.4.1

Video
ID : 1
Format : AVC
Format/Info : Advanced Video Codec
Format profile : High@L3.1
Format settings, CABAC : Yes
Format settings, RefFrames : 4 frames
Codec ID : V_MPEG4/ISO/AVC
Duration : 2 h 15 min
Bit rate : 1 320 kb/s
Width : 1 280 pixels
Height : 536 pixels
Display aspect ratio : 2.40:1
Frame rate mode : Constant
Frame rate : 25.000 FPS
Color space : YUV
Chroma subsampling : 4:2:0
Bit depth : 8 bits
Scan type : Progressive
Bits/(Pixel*Frame) : 0.077
Stream size : 1.25 GiB (89%)
Writing library : x264 core 148 r2744 b97ae06
Encoding settings : cabac=1 / ref=3 / deblock=1:0:0 / analyse=0x3:0x113 / me=hex / subme=7 / psy=1 / psy_rd=1.00:0.00 / mixed_ref=1 / me_range=16 / chroma_me=1 / trellis=1 / 8x8dct=1 / cqm=0 / deadzone=21,11 / fast_pskip=1 / chroma_qp_offset=-2 / threads=12 / lookahead_threads=2 / sliced_threads=0 / nr=0 / decimate=1 / interlaced=0 / bluray_compat=0 / constrained_intra=0 / bframes=3 / b_pyramid=2 / b_adapt=1 / b_bias=0 / direct=1 / weightb=1 / open_gop=0 / weightp=2 / keyint=250 / keyint_min=25 / scenecut=40 / intra_refresh=0 / rc_lookahead=40 / rc=2pass / mbtree=1 / bitrate=1320 / ratetol=1.0 / qcomp=0.60 / qpmin=0 / qpmax=69 / qpstep=4 / cplxblur=20.0 / qblur=0.5 / ip_ratio=1.40 / aq=1:1.00
Language : Telugu
Default : Yes
Forced : No

Audio
ID : 2
Format : AC-3
Format/Info : Audio Coding 3
Format settings, Endianness : Big
Codec ID : A_AC3
Duration : 2 h 15 min
Bit rate mode : Constant
Bit rate : 160 kb/s
Channel(s) : 6 channels
Channel positions : Front: L C R, Side: L R, LFE
Sampling rate : 44.1 kHz
Frame rate : 28.711 FPS (1536 SPF)
Bit depth : 16 bits
Compression mode : Lossy
Stream size : 155 MiB (11%)
Language : Telugu
Service kind : Complete Main
Default : Yes
Forced : No


https://extraimage.net/images/2017/09/23/14ae82d8b86dc010adbaaed77efdbc9f.pnghttps://extraimage.net/images/2017/09/23/22999be6bae917803d68563533b95ddd.pnghttps://extraimage.net/images/2017/09/23/5e9691890e5e6af8276a6291303ea2e9.pnghttps://extraimage.net/images/2017/09/23/77a0ceae2891e0aadcd14ee17f81e265.pnghttps://extraimage.net/images/2017/09/23/51a47a80cc4aad9972ddc09bb59f0141.pnghttps://extraimage.net/images/2017/09/23/45ceb22a04e0d24e3e5c6aaab055896b.png

Buy HeroUpload Premium and Support Us.



Single Direct Fast Link


http://www.heroupload.com/159f29eb41fad83b/Rarandoi.Veduka.Chudham.2017.Telugu.SDTV-Rip.720p.x264.5.1-TMV.mkv



http://filefloater.com/3h4/Rarandoi.Veduka.Chudham.2017.Telugu.SDTV-Rip.720p.x264.5.1-TMV.mkv