PDA

View Full Version : LIE (2017) Telugu - 720p - WEB-HD - AVC - AC3 5.1 - TMV



wroser
09-27-2017, 01:00 AM
https://i.imgur.com/mvvKykf.jpg







General
Format : MPEG-4
Format profile : Base Media
Codec ID : isom (isom)
File size : 1.97 GiB
Duration : 2 h 20 min
Overall bit rate : 2 004 kb/s
Encoded date : UTC 2017-09-17 13:22:58
Tagged date : UTC 2017-09-17 13:22:58

Video
ID : 1
Format : AVC
Format/Info : Advanced Video Codec
Format profile : High@L3.1
Format settings, CABAC : Yes
Format settings, RefFrames : 4 frames
Codec ID : avc1
Codec ID/Info : Advanced Video Coding
Duration : 2 h 20 min
Bit rate : 1 840 kb/s
Maximum bit rate : 8 428 kb/s
Width : 1 280 pixels
Height : 544 pixels
Display aspect ratio : 2.35:1
Frame rate mode : Constant
Frame rate : 30.000 FPS
Color space : YUV
Chroma subsampling : 4:2:0
Bit depth : 8 bits
Scan type : Progressive
Bits/(Pixel*Frame) : 0.088
Stream size : 1.81 GiB (92%)
Writing library : x264 core 148 r2744 b97ae06
Encoding settings : cabac=1 / ref=3 / deblock=1:0:0 / analyse=0x3:0x113 / me=hex / subme=7 / psy=1 / psy_rd=1.00:0.00 / mixed_ref=1 / me_range=16 / chroma_me=1 / trellis=1 / 8x8dct=1 / cqm=0 / deadzone=21,11 / fast_pskip=1 / chroma_qp_offset=-2 / threads=17 / lookahead_threads=2 / sliced_threads=0 / nr=0 / decimate=1 / interlaced=0 / bluray_compat=0 / constrained_intra=0 / bframes=3 / b_pyramid=2 / b_adapt=1 / b_bias=0 / direct=1 / weightb=1 / open_gop=0 / weightp=2 / keyint=300 / keyint_min=30 / scenecut=40 / intra_refresh=0 / rc_lookahead=40 / rc=2pass / mbtree=1 / bitrate=1840 / ratetol=1.0 / qcomp=0.60 / qpmin=0 / qpmax=69 / qpstep=4 / cplxblur=20.0 / qblur=0.5 / ip_ratio=1.40 / aq=1:1.00
Encoded date : UTC 2017-09-17 13:18:32
Tagged date : UTC 2017-09-17 13:23:01

Audio
ID : 2
Format : AC-3
Format/Info : Audio Coding 3
Format settings, Endianness : Big
Codec ID : ac-3
Duration : 2 h 20 min
Bit rate mode : Constant
Bit rate : 160 kb/s
Maximum bit rate : 167 kb/s
Channel(s) : 6 channels
Channel positions : Front: L C R, Side: L R, LFE
Sampling rate : 44.1 kHz
Frame rate : 28.711 FPS (1536 SPF)
Bit depth : 16 bits
Compression mode : Lossy
Stream size : 161 MiB (8%)
Language : Telugu
Service kind : Complete Main
Encoded date : UTC 2017-09-17 13:23:01
Tagged date : UTC 2017-09-17 13:23:01


https://extraimage.net/images/2017/09/17/eb73bb814a5bc075297042b706d2babd.pnghttps://extraimage.net/images/2017/09/17/0b5b5af076c09a7305d4f23a8aa33b20.pnghttps://extraimage.net/images/2017/09/17/53155bc2a8fe125560079da2bfed7266.pnghttps://extraimage.net/images/2017/09/17/83be1eaafda0b830a99d338aebaa21ba.pnghttps://extraimage.net/images/2017/09/17/1ae7859beb0593dc67203f670de5508e.pnghttps://extraimage.net/images/2017/09/17/6297f64e488431ecbd233b0aa850af43.png


SINGLE DIRECT FAST LINKS


http://www.heroupload.com/a7e8151b15690a2f/LIE.2017.Telugu.WEB-HD.720p.AVC.AC3-TMV.mp4




http://filefloater.com/5P6/LIE.2017.Telugu.WEB-HD.720p.AVC.AC3-TMV.mp4