PDA

View Full Version : Vellipomakey (2017) Telugu - 720p - WEB-HD - AVC - AAC-TMV



wroser
09-27-2017, 12:55 AM
http://i.imgur.com/WlblKUz.jpg





General
Format : MPEG-4
Format profile : Base Media / Version 2
Codec ID : mp42 (isom/mp42)
File size : 744 MiB
Duration : 1 h 48 min
Overall bit rate mode : Variable
Overall bit rate : 961 kb/s
Encoded date : UTC 2017-09-15 19:36:16
Tagged date : UTC 2017-09-15 19:36:16
gsst : 0
gstd : 6500356

Video
ID : 1
Format : AVC
Format/Info : Advanced Video Codec
Format profile : Main@L3.1
Format settings, CABAC : Yes
Format settings, RefFrames : 3 frames
Codec ID : avc1
Codec ID/Info : Advanced Video Coding
Duration : 1 h 48 min
Bit rate : 832 kb/s
Width : 1 280 pixels
Height : 720 pixels
Display aspect ratio : 16:9
Frame rate mode : Constant
Frame rate : 24.000 FPS
Color space : YUV
Chroma subsampling : 4:2:0
Bit depth : 8 bits
Scan type : Progressive
Bits/(Pixel*Frame) : 0.038
Stream size : 644 MiB (87%)
Title : ISO Media file produced by Google Inc. Created on: 09/15/2017.
Encoded date : UTC 2017-09-15 19:36:16
Tagged date : UTC 2017-09-15 19:36:16
Color range : Limited
Color primaries : BT.709
Transfer characteristics : BT.709
Matrix coefficients : BT.709

Audio
ID : 2
Format : AAC
Format/Info : Advanced Audio Codec
Format profile : LC
Codec ID : 40
Duration : 1 h 48 min
Bit rate mode : Variable
Bit rate : 126 kb/s
Channel(s) : 2 channels
Channel positions : Front: L R
Sampling rate : 44.1 kHz
Frame rate : 43.066 FPS (1024 SPF)
Compression mode : Lossy
Stream size : 97.3 MiB (13%)
Title : ISO Media file produced by Google Inc. Created on: 09/15/2017.
Encoded date : UTC 2017-09-15 19:36:16
Tagged date : UTC 2017-09-15 19:36:16



https://extraimage.net/images/2017/09/16/28604c4e502ac84104d0632b96aabc45.pnghttps://extraimage.net/images/2017/09/16/1b567e4420b51267db807b8534084aa4.pnghttps://extraimage.net/images/2017/09/16/4e331b540632e772a0032e7be62c56ab.pnghttps://extraimage.net/images/2017/09/16/e0ab199e3fa613ff5456eeff2778168a.pnghttps://extraimage.net/images/2017/09/16/997523bc9c1ec1cc3db845e7d9cfcc07.png


SINGLE DIRECT FAST LINKS


http://www.heroupload.com/82776c44db7e21bd/Vellipomakey.2017.Telugu.WEB-HD.720p.AVC.AAC-TMV.MP4



http://filefloater.com/3dh/Vellipomakey.2017.Telugu.WEB-HD.720p.AVC.AAC-TMV.MP4