PDA

View Full Version : Speedunnodu (2016) Telugu - 720p - WEB-HD - AVC - AAC-TMV



wroser
09-27-2017, 12:47 AM
http://i.imgur.com/i66ME6r.png





General
Format : MPEG-4
Format profile : Base Media / Version 2
Codec ID : mp42 (isom/iso2/avc1/mp41)
File size : 2.14 GiB
Duration : 2 h 27 min
Overall bit rate mode : Variable
Overall bit rate : 2 076 kb/s
Encoded date : UTC 2017-09-08 13:35:46
Tagged date : UTC 2017-09-08 13:35:46
Writing application : HandBrake 1.0.7 2017040900

Video
ID : 1
Format : AVC
Format/Info : Advanced Video Codec
Format profile : High@L5.1
Format settings, CABAC : Yes
Format settings, RefFrames : 4 frames
Codec ID : avc1
Codec ID/Info : Advanced Video Coding
Duration : 2 h 27 min
Bit rate : 1 918 kb/s
Width : 1 280 pixels
Height : 720 pixels
Display aspect ratio : 16:9
Frame rate mode : Variable
Frame rate : 23.976 (24000/1001) FPS
Minimum frame rate : 23.974 FPS
Maximum frame rate : 23.981 FPS
Color space : YUV
Chroma subsampling : 4:2:0
Bit depth : 8 bits
Scan type : Progressive
Bits/(Pixel*Frame) : 0.087
Stream size : 1.97 GiB (92%)
Writing library : x264 core 148 r2708 86b7198
Encoding settings : cabac=1 / ref=2 / deblock=1:0:0 / analyse=0x3:0x113 / me=hex / subme=6 / psy=1 / psy_rd=1.00:0.00 / mixed_ref=1 / me_range=16 / chroma_me=1 / trellis=1 / 8x8dct=1 / cqm=0 / deadzone=21,11 / fast_pskip=1 / chroma_qp_offset=-2 / threads=12 / lookahead_threads=2 / sliced_threads=0 / nr=0 / decimate=1 / interlaced=0 / bluray_compat=0 / constrained_intra=0 / bframes=3 / b_pyramid=2 / b_adapt=1 / b_bias=0 / direct=1 / weightb=1 / open_gop=0 / weightp=1 / keyint=240 / keyint_min=24 / scenecut=40 / intra_refresh=0 / rc_lookahead=30 / rc=abr / mbtree=1 / bitrate=1918 / ratetol=1.0 / qcomp=0.60 / qpmin=0 / qpmax=69 / qpstep=4 / vbv_maxrate=300000 / vbv_bufsize=300000 / nal_hrd=none / filler=0 / ip_ratio=1.40 / aq=1:1.00
Encoded date : UTC 2017-09-08 13:35:46
Tagged date : UTC 2017-09-08 13:35:46
Color range : Limited
Color primaries : BT.709
Transfer characteristics : BT.709
Matrix coefficients : BT.709

Audio
ID : 2
Format : AAC
Format/Info : Advanced Audio Codec
Format profile : LC
Codec ID : 40
Duration : 2 h 27 min
Bit rate mode : Variable
Bit rate : 160 kb/s
Channel(s) : 2 channels
Channel positions : Front: L R
Sampling rate : 44.1 kHz
Frame rate : 43.066 FPS (1024 SPF)
Compression mode : Lossy
Stream size : 169 MiB (8%)
Title : Stereo / Stereo
Language : English
Default : Yes
Alternate group : 1
Encoded date : UTC 2017-09-08 13:35:46
Tagged date : UTC 2017-09-08 13:35:46


https://extraimage.net/images/2017/09/08/86d95203cfb7bbca9fd5b198eb10224f.pnghttps://extraimage.net/images/2017/09/08/a7206dd5e35ad0a98e53503cba35e02d.pnghttps://extraimage.net/images/2017/09/08/3dd1e4dde298aa5c9ba49a032e738e9f.pnghttps://extraimage.net/images/2017/09/08/3d784989190e8667903499fa13a8e49f.pnghttps://extraimage.net/images/2017/09/08/6ee58f1739168cc5b145769b42c790f7.png



SINGLE DIRECT FAST LINKS


http://www.heroupload.com/a2b7d7c6ca130d66/Speedunnodu.2016.Telugu.WEB-HD.720p.AVC.AAC-TMV.mp4


http://filefloater.com/5Jf/Speedunnodu.2016.Telugu.WEB-HD.720p.AVC.AAC-TMV.mp4
700MB LINKS


http://www.heroupload.com/ed106d5a5177efcf/Speedunnodu.2016.Telugu.WEB-HD.720p.AVC.AAC-TMV.part1.rar
http://www.heroupload.com/72afafa52df56fd0/Speedunnodu.2016.Telugu.WEB-HD.720p.AVC.AAC-TMV.part2.rar
http://www.heroupload.com/5bca1a25a27ce757/Speedunnodu.2016.Telugu.WEB-HD.720p.AVC.AAC-TMV.part3.rar
http://www.heroupload.com/b99bfdfbcc290b79/Speedunnodu.2016.Telugu.WEB-HD.720p.AVC.AAC-TMV.part4.rar



http://filefloater.com/5Jg/Speedunnodu.2016.Telugu.WEB-HD.720p.AVC.AAC-TMV.part1.rar
http://filefloater.com/5Jh/Speedunnodu.2016.Telugu.WEB-HD.720p.AVC.AAC-TMV.part2.rar
http://filefloater.com/380/Speedunnodu.2016.Telugu.WEB-HD.720p.AVC.AAC-TMV.part3.rar
http://filefloater.com/381/Speedunnodu.2016.Telugu.WEB-HD.720p.AVC.AAC-TMV.part4.rar