PDA

View Full Version : Om Namo Venkatesaya (2017) Telugu - 700MB - 1CDRip - SDTV-Rip - XviD - MP3-TMV



wroser
05-14-2017, 09:09 PM
http://i.imgur.com/KFTtgUT.jpg





General
Format : AVI
Format/Info : Audio Video Interleave
File size : 704 MiB
Duration : 2 h 14 min
Overall bit rate mode : Variable
Overall bit rate : 731 kb/s

Video
ID : 0
Format : MPEG-4 Visual
Format profile : Advanced Simple@L5
Format settings, BVOP : 2
Format settings, QPel : No
Format settings, GMC : No warppoints
Format settings, Matrix : Default (H.263)
Codec ID : XVID
Codec ID/Hint : XviD
Duration : 2 h 14 min
Bit rate : 620 kb/s
Width : 640 pixels
Height : 272 pixels
Display aspect ratio : 2.35:1
Frame rate : 25.000 FPS
Color space : YUV
Chroma subsampling : 4:2:0
Bit depth : 8 bits
Scan type : Progressive
Compression mode : Lossy
Bits/(Pixel*Frame) : 0.142
Stream size : 597 MiB (85%)
Writing library : XviD 67

Audio
ID : 1
Format : MPEG Audio
Format version : Version 1
Format profile : Layer 3
Mode : Joint stereo
Mode extension : MS Stereo
Codec ID : 55
Codec ID/Hint : MP3
Duration : 2 h 14 min
Bit rate mode : Variable
Bit rate : 96.0 kb/s
Channel(s) : 2 channels
Sampling rate : 44.1 kHz
Compression mode : Lossy
Stream size : 94.9 MiB (13%)
Alignment : Aligned on interleaves
Interleave, duration : 26 ms (0.65 video frame)
Interleave, preload duratio : 161 ms
Writing library : LAME3.99r
Encoding settings : -m j -V 4 -q 3 -lowpass 15.1 --abr 96


https://extraimage.net/images/2017/05/14/94acec1103f348c9df7fb881699bf8b9.pnghttps://extraimage.net/images/2017/05/14/948d3a4091e934cf9c133140503451b5.pnghttps://extraimage.net/images/2017/05/14/119293277d74f15af16e850c0db2d07e.pnghttps://extraimage.net/images/2017/05/14/5b9cffe6edc18cf4eae706318b3bcac3.pnghttps://extraimage.net/images/2017/05/14/532a2274c67299da3fac09156d735e9a.pnghttps://extraimage.net/images/2017/05/14/5f3f4894162d2a79445604b462b067c2.pnghttps://extraimage.net/images/2017/05/14/d6989577542abd34d13d2ef7a0874969.png

SINGLE DIRECT FAST LINKS



http://www.heroupload.com/c685ab2a0aadc77e/Om.Namo.Venkatesaya.2017.Telugu.SDTV-Rip.XviD.700MB.MP3-TMV.avi