PDA

View Full Version : Majnu (2016) Telugu - 540p - WEB-HD - AVC - DD5.1 - TMV



wroser
05-04-2017, 12:18 AM
http://i.imgur.com/qfxEWUc.jpg





Format : MPEG-4
Format profile : Base Media
Codec ID : isom (isom)
File size : 1.13 GiB
Duration : 2 h 14 min
Overall bit rate : 1 206 kb/s
Encoded date : UTC 2016-10-15 07:49:38
Tagged date : UTC 2016-10-15 07:49:38

Video
ID : 1
Format : AVC
Format/Info : Advanced Video Codec
Format profile : High@L3.1
Format settings, CABAC : Yes
Format settings, ReFrames : 4 frames
Codec ID : avc1
Codec ID/Info : Advanced Video Coding
Duration : 2 h 14 min
Bit rate : 1 011 kb/s
Maximum bit rate : 4 411 kb/s
Width : 960 pixels
Height : 540 pixels
Display aspect ratio : 16:9
Frame rate mode : Constant
Frame rate : 24.000 FPS
Color space : YUV
Chroma subsampling : 4:2:0
Bit depth : 8 bits
Scan type : Progressive
Bits/(Pixel*Frame) : 0.081
Stream size : 974 MiB (84%)
Writing library : x264 core 148 r2638 7599210
Encoding settings : cabac=1 / ref=3 / deblock=1:0:0 / analyse=0x3:0x113 / me=hex / subme=7 / psy=1 / psy_rd=1.00:0.00 / mixed_ref=1 / me_range=16 / chroma_me=1 / trellis=1 / 8x8dct=1 / cqm=0 / deadzone=21,11 / fast_pskip=1 / chroma_qp_offset=-2 / threads=17 / lookahead_threads=2 / sliced_threads=0 / nr=0 / decimate=1 / interlaced=0 / bluray_compat=0 / constrained_intra=0 / bframes=3 / b_pyramid=2 / b_adapt=1 / b_bias=0 / direct=1 / weightb=1 / open_gop=0 / weightp=2 / keyint=240 / keyint_min=24 / scenecut=40 / intra_refresh=0 / rc_lookahead=40 / rc=2pass / mbtree=1 / bitrate=1011 / ratetol=1.0 / qcomp=0.60 / qpmin=0 / qpmax=69 / qpstep=4 / cplxblur=20.0 / qblur=0.5 / ip_ratio=1.40 / aq=1:1.00
Encoded date : UTC 2016-10-15 07:23:04
Tagged date : UTC 2016-10-15 07:49:44

Audio
ID : 2
Format : AC-3
Format/Info : Audio Coding 3
Mode extension : CM (complete main)
Format settings, Endianness : Big
Codec ID : ac-3
Duration : 2 h 14 min
Bit rate mode : Constant
Bit rate : 192 kb/s
Maximum bit rate : 201 kb/s
Channel(s) : 6 channels
Channel positions : Front: L C R, Side: L R, LFE
Sampling rate : 44.1 kHz
Frame rate : 28.711 FPS (1536 spf)
Bit depth : 16 bits
Compression mode : Lossy
Stream size : 185 MiB (16%)
Encoded date : UTC 2016-10-15 07:49:41
Tagged date : UTC 2016-10-15 07:49:44



https://extraimage.net/images/2017/05/03/56c05237b6900773600c6d4677566cf5.png
https://extraimage.net/images/2017/05/03/2f507a3613947409cfa978345d3987b4.pnghttps://extraimage.net/images/2017/05/03/809d2e1ce112e17c0cf41f135f5ccd1d.pnghttps://extraimage.net/images/2017/05/03/b1b0f07f4d51ac6e1a9e132f309b9066.pnghttps://extraimage.net/images/2017/05/03/2128212a78bcbbb12e6c9dc2b365834a.png

SINGLE DIRECT FAST LINKS



http://www.heroupload.com/f5f6102f74a701ec/Majnu.2016.Telugu.WEB-HD.540p.AVC.DD5.1-TMV.mp4