PDA

View Full Version : Premam (2016) Telugu - 720p - HDTV - UNTOUCHED - x264 - AAC - TMV



wroser
05-01-2017, 12:28 AM
http://i.imgur.com/AKv7o8Z.jpg





General
Format : Matroska
Format version : Version 4 / Version 2
File size : 1.40 GiB
Duration : 2 h 6 min
Overall bit rate : 1 580 kb/s
Encoded date : UTC 2017-04-30 15:01:30
Writing application : mkvmerge v7.8.0 ('River Man') 64bit built on Mar 27 2015 16:31:37
Writing library : libebml v1.3.1 + libmatroska v1.4.2

Video
ID : 1
Format : AVC
Format/Info : Advanced Video Codec
Format profile : High@L3.1
Format settings, CABAC : Yes
Format settings, ReFrames : 1 frame
Format settings, GOP : M=1, N=30
Codec ID : V_MPEG4/ISO/AVC
Duration : 2 h 6 min
Bit rate : 1 530 kb/s
Width : 1 024 pixels
Height : 576 pixels
Display aspect ratio : 16:9
Frame rate mode : Constant
Frame rate : 25.000 FPS
Color space : YUV
Chroma subsampling : 4:2:0
Bit depth : 8 bits
Scan type : Progressive
Bits/(Pixel*Frame) : 0.104
Stream size : 1.35 GiB (97%)
Language : English
Default : Yes
Forced : No

Audio
ID : 2
Format : AAC
Format/Info : Advanced Audio Codec
Format profile : HE-AACv2 / HE-AAC / LC
Codec ID : A_AAC
Duration : 2 h 6 min
Bit rate : 48.0 kb/s
Channel(s) : 2 channels / 2 channels / 2 channels
Channel positions : Front: L R / Front: L R / Front: L R
Sampling rate : 44.1 kHz / 44.1 kHz / 22.05 kHz
Frame rate : 21.533 FPS (1024 spf)
Compression mode : Lossy
Stream size : 43.5 MiB (3%)
Language : English
Default : Yes
Forced : No



https://extraimage.net/images/2017/04/30/8608bcac407f87b6257e11aefcc6eccb.png
https://extraimage.net/images/2017/04/30/d2d913385c4311f775a3418ecb6de117.pnghttps://extraimage.net/images/2017/04/30/c3079bd31ee8680785719a12ca60c511.pnghttps://extraimage.net/images/2017/04/30/1b0fc9e85e5ca14feed8914b87e6723e.pnghttps://extraimage.net/images/2017/04/30/27616f4bfd26e6e81f9e2d8a2dfb23bc.png

SINGLE DIRECT FAST LINKS



http://www.heroupload.com/ae5659df81355ff0/Premam.2016.Telugu.HDTV.720p.UNTOUCHED.AAC-TMV.mkv