PDA

View Full Version : Naanna Nenu Naa Boyfriends (2016) Telugu - 720p - HDTV - UNTOUCHED - AVC - AAC - TMV



wroser
05-01-2017, 12:25 AM
http://i.imgur.com/xUm1PKy.jpg





General
Format : MPEG-4
Format profile : Base Media
Codec ID : isom (isom/iso2/avc1/mp42)
File size : 1.54 GiB
Duration : 2 h 19 min
Overall bit rate mode : Variable
Overall bit rate : 1 583 kb/s
Encoded date : UTC 2017-04-30 12:00:43
Tagged date : UTC 2017-04-30 12:00:43

Video
ID : 1
Format : AVC
Format/Info : Advanced Video Codec
Format profile : High@L3.1
Format settings, CABAC : Yes
Format settings, ReFrames : 1 frame
Format settings, GOP : M=1, N=30
Codec ID : avc1
Codec ID/Info : Advanced Video Coding
Duration : 2 h 19 min
Source duration : 2 h 19 min
Bit rate : 1 533 kb/s
Width : 1 024 pixels
Height : 576 pixels
Display aspect ratio : 16:9
Frame rate mode : Variable
Frame rate : 25.000 FPS
Minimum frame rate : 15.625 FPS
Maximum frame rate : 9 000.000 FPS
Color space : YUV
Chroma subsampling : 4:2:0
Bit depth : 8 bits
Scan type : Progressive
Bits/(Pixel*Frame) : 0.104
Stream size : 1.49 GiB (97%)
Source stream size : 1.49 GiB (97%)
Language : English
Encoded date : UTC 2017-04-30 12:00:43
Tagged date : UTC 2017-04-30 12:00:43
mdhd_Duration : 8357927

Audio
ID : 2
Format : AAC
Format/Info : Advanced Audio Codec
Format profile : HE-AAC / LC
Codec ID : 40
Duration : 2 h 19 min
Source duration : 2 h 19 min
Bit rate mode : Variable
Bit rate : 48.0 kb/s
Channel(s) : 2 channels
Channel positions : Front: L R
Sampling rate : 44.1 kHz / 22.05 kHz
Frame rate : 21.533 FPS (1024 spf)
Compression mode : Lossy
Stream size : 47.8 MiB (3%)
Source stream size : 47.8 MiB (3%)
Language : Telugu
Encoded date : UTC 2017-04-30 12:00:43
Tagged date : UTC 2017-04-30 12:00:43
mdhd_Duration : 8357927



https://extraimage.net/images/2017/04/30/2b8b18efbdc8f7068b0803a8a3f12b29.png
https://extraimage.net/images/2017/04/30/62d4ec40d9b32d0b8e316f82e93d885f.pnghttps://extraimage.net/images/2017/04/30/e8b7ae2f0c3925aa947098f1720ba386.pnghttps://extraimage.net/images/2017/04/30/3ddc6b0230c14a16994c4dbe7d7f563f.pnghttps://extraimage.net/images/2017/04/30/f48f48f98068e89c4bc078233c616cf3.pnghttps://extraimage.net/images/2017/04/30/1bd16541d384e0268d0547f46f77844b.png


SINGLE DIRECT FAST LINKS



http://www.heroupload.com/21a7e5055a99787a/Naanna.Nenu.Naa.Boyfriends.2016.Telugu.HDTV.720p.U NTOUCHED.AAC-TMV.mp4