PDA

View Full Version : Winner (2017) Telugu - HDRip - 1080p - x264 - DD5.1 - ESub-TMV



wroser
04-22-2017, 01:53 PM
http://i.imgur.com/0VB6PlN.jpg




General
Format : Matroska
Format version : Version 4 / Version 2
File size : 1.26 GiB
Duration : 2 h 29 min
Overall bit rate : 1 207 kb/s
Encoded date : UTC 2017-04-22 02:22:33
Writing application : mkvmerge v7.0.0 ('Where We Going') 32bit built on Jun 9 2014 15:08:34
Writing library : libebml v1.3.0 + libmatroska v1.4.1

Video
ID : 1
Format : AVC
Format/Info : Advanced Video Codec
Format profile : Main@L4
Format settings, CABAC : Yes
Format settings, ReFrames : 4 frames
Codec ID : V_MPEG4/ISO/AVC
Duration : 2 h 29 min
Bit rate : 1 046 kb/s
Width : 1 280 pixels
Height : 540 pixels
Display aspect ratio : 2.40:1
Frame rate mode : Constant
Frame rate : 23.976 (23976/1000) FPS
Color space : YUV
Chroma subsampling : 4:2:0
Bit depth : 8 bits
Scan type : Progressive
Bits/(Pixel*Frame) : 0.063
Stream size : 1.09 GiB (87%)
Writing library : x264 core 148 r2708 86b7198
Encoding settings : cabac=1 / ref=2 / deblock=1:0:0 / analyse=0x1:0x111 / me=hex / subme=6 / psy=1 / psy_rd=1.00:0.00 / mixed_ref=1 / me_range=16 / chroma_me=1 / trellis=1 / 8x8dct=0 / cqm=0 / deadzone=21,11 / fast_pskip=1 / chroma_qp_offset=-2 / threads=17 / lookahead_threads=2 / sliced_threads=0 / nr=0 / decimate=1 / interlaced=0 / bluray_compat=0 / constrained_intra=0 / bframes=3 / b_pyramid=2 / b_adapt=1 / b_bias=0 / direct=1 / weightb=1 / open_gop=0 / weightp=1 / keyint=240 / keyint_min=24 / scenecut=40 / intra_refresh=0 / rc_lookahead=30 / rc=abr / mbtree=1 / bitrate=1046 / ratetol=1.0 / qcomp=0.60 / qpmin=0 / qpmax=69 / qpstep=4 / vbv_maxrate=20000 / vbv_bufsize=25000 / nal_hrd=none / filler=0 / ip_ratio=1.40 / aq=1:1.00
Default : Yes
Forced : No
Color range : Limited
Color primaries : BT.709
Transfer characteristics : BT.709
Matrix coefficients : BT.709

Audio
ID : 2
Format : AC-3
Format/Info : Audio Coding 3
Mode extension : CM (complete main)
Format settings, Endianness : Big
Codec ID : A_AC3
Duration : 2 h 29 min
Bit rate mode : Constant
Bit rate : 160 kb/s
Channel(s) : 6 channels
Channel positions : Front: L C R, Side: L R, LFE
Sampling rate : 48.0 kHz
Frame rate : 31.250 FPS (1536 spf)
Compression mode : Lossy
Delay relative to video : -1 ms
Stream size : 171 MiB (13%)
Language : Telugu
Default : Yes
Forced : No

Text
ID : 3
Format : UTF-8
Codec ID : S_TEXT/UTF8
Codec ID/Info : UTF-8 Plain Text
Duration : 2 h 25 min
Bit rate : 71 b/s
Count of elements : 2161
Stream size : 76.1 KiB (0%)
Language : English
Default : Yes
Forced : No



https://extraimage.net/images/2017/04/22/e8d7777fd88de92adfba3169a12b9539.png
https://extraimage.net/images/2017/04/22/a85ca05881bc3bc2bdbef8a569703b8b.pnghttps://extraimage.net/images/2017/04/22/2190e0e40f7eb67785daf1ee3c77a932.png

SINGLE DIRECT FAST LINKS


http://www.heroupload.com/4217ba44c75a04c3/Winner.2017.Telugu.HDRip.1080p.x264.DD5.1.3GB.ESub-TMV.mkv

700MB LINKS



http://www.heroupload.com/4907fbbe15ad0031/Winner.2017.Telugu.HDRip.1080p.x264.DD5.1.3GB.ESub-TMV.mkv.001
http://www.heroupload.com/8eafd27bad4e119c/Winner.2017.Telugu.HDRip.1080p.x264.DD5.1.3GB.ESub-TMV.mkv.002
http://www.heroupload.com/56edbfa4f5e3f870/Winner.2017.Telugu.HDRip.1080p.x264.DD5.1.3GB.ESub-TMV.mkv.003
http://www.heroupload.com/620b72ac6bba47b2/Winner.2017.Telugu.HDRip.1080p.x264.DD5.1.3GB.ESub-TMV.mkv.004
http://www.heroupload.com/a6d2150075cb3739/Winner.2017.Telugu.HDRip.1080p.x264.DD5.1.3GB.ESub-TMV.mkv.005