PDA

View Full Version : The Fate of the Furious (2017) DVDScr x264 [Dual-Audio] [Telugu+English] TMV



wroser
04-15-2017, 04:09 PM
http://i.imgur.com/DoJ5DVh.jpg





General
Format : Matroska
Format version : Version 4 / Version 2
File size : 724 MiB
Duration : 2 h 6 min
Overall bit rate mode : Variable
Overall bit rate : 799 kb/s
Encoded date : UTC 2017-04-15 07:29:57
Writing application : mkvmerge v7.0.0 ('Where We Going') 32bit built on Jun 9 2014 15:08:34
Writing library : libebml v1.3.0 + libmatroska v1.4.1

Video
ID : 1
Format : AVC
Format/Info : Advanced Video Codec
Format profile : High@L3.1
Format settings, CABAC : Yes
Format settings, ReFrames : 4 frames
Codec ID : V_MPEG4/ISO/AVC
Duration : 2 h 6 min
Bit rate : 640 kb/s
Width : 720 pixels
Height : 352 pixels
Display aspect ratio : 2.045
Frame rate mode : Constant
Frame rate : 29.970 (30000/1001) FPS
Color space : YUV
Chroma subsampling : 4:2:0
Bit depth : 8 bits
Scan type : Progressive
Bits/(Pixel*Frame) : 0.084
Stream size : 578 MiB (80%)
Writing library : x264 core 142 r2491 24e4fed
Encoding settings : cabac=1 / ref=3 / deblock=1:0:0 / analyse=0x3:0x113 / me=hex / subme=7 / psy=1 / psy_rd=1.00:0.00 / mixed_ref=1 / me_range=16 / chroma_me=1 / trellis=1 / 8x8dct=1 / cqm=0 / deadzone=21,11 / fast_pskip=1 / chroma_qp_offset=-2 / threads=12 / lookahead_threads=2 / sliced_threads=0 / nr=0 / decimate=1 / interlaced=0 / bluray_compat=0 / constrained_intra=0 / bframes=3 / b_pyramid=2 / b_adapt=1 / b_bias=0 / direct=1 / weightb=1 / open_gop=0 / weightp=2 / keyint=300 / keyint_min=30 / scenecut=40 / intra_refresh=0 / rc_lookahead=40 / rc=abr / mbtree=1 / bitrate=640 / ratetol=1.0 / qcomp=0.60 / qpmin=0 / qpmax=69 / qpstep=4 / vbv_maxrate=17500 / vbv_bufsize=17500 / nal_hrd=none / filler=0 / ip_ratio=1.40 / aq=1:1.00
Language : English
Default : Yes
Forced : No
Color range : Limited
Color primaries : BT.601 NTSC
Transfer characteristics : BT.709
Matrix coefficients : BT.601

Audio #1
ID : 2
Format : MPEG Audio
Format version : Version 1
Format profile : Layer 3
Mode : Joint stereo
Mode extension : MS Stereo
Codec ID : A_MPEG/L3
Codec ID/Hint : MP3
Duration : 2 h 6 min
Bit rate mode : Variable
Bit rate : 89.0 kb/s
Nominal bit rate : 96.0 kb/s
Channel(s) : 2 channels
Sampling rate : 48.0 kHz
Frame rate : 41.667 FPS (1152 spf)
Compression mode : Lossy
Stream size : 80.5 MiB (11%)
Writing library : LAME3.99r
Encoding settings : -m j -V 4 -q 3 -lowpass 15.1 --abr 96
Language : Telugu
Default : Yes
Forced : No

Audio #2
ID : 3
Format : MPEG Audio
Format version : Version 1
Format profile : Layer 3
Mode : Joint stereo
Codec ID : A_MPEG/L3
Codec ID/Hint : MP3
Duration : 2 h 6 min
Bit rate mode : Variable
Bit rate : 68.5 kb/s
Nominal bit rate : 64.0 kb/s
Channel(s) : 2 channels
Sampling rate : 48.0 kHz
Frame rate : 41.667 FPS (1152 spf)
Compression mode : Lossy
Stream size : 62.0 MiB (9%)
Writing library : LAME3.99r
Encoding settings : -m j -V 4 -q 3 -lowpass 11 --abr 64
Language : English
Default : No
Forced : No




https://extraimage.net/images/2017/04/14/ac57dec9b7167427f2806415f8c354d7.png
https://extraimage.net/images/2017/04/14/ab45547ff75121c15b5666f572646c6c.pnghttps://extraimage.net/images/2017/04/14/b2dceacbd20fcb2300f172c009f2a244.pnghttps://extraimage.net/images/2017/04/14/4216db678bbacc654c1b70d3fc72f35c.pnghttps://extraimage.net/images/2017/04/14/1ac492a80280d7422ccfde6534c54cfd.png
SINGLE DIRECT FAST LINKS




http://www.heroupload.com/13e7df4ffb5790b4/The.Fate.of.the.Furious.2017.DVDScr.700MB.x264.Tel ugu+Eng.Clear.Audio.MP3-TMV.mkv