PDA

View Full Version : Guru (2017) Telugu - TCRip - 720p - x264 - MP3 - Team MV



wroser
04-13-2017, 02:08 PM
http://i.imgur.com/AMPNv3K.jpg









General
Format : Matroska
Format version : Version 4 / Version 2
File size : 1.36 GiB
Duration : 1 h 49 min
Overall bit rate mode : Variable
Overall bit rate : 1 788 kb/s
Encoded date : UTC 2017-04-05 09:21:08
Writing application : mkvmerge v7.0.0 ('Where We Going') 32bit built on Jun 9 2014 15:08:34
Writing library : libebml v1.3.0 + libmatroska v1.4.1

Video
ID : 1
Format : AVC
Format/Info : Advanced Video Codec
Format profile : High@L3.1
Format settings, CABAC : Yes
Format settings, ReFrames : 4 frames
Codec ID : V_MPEG4/ISO/AVC
Duration : 1 h 49 min
Bit rate : 1 689 kb/s
Nominal bit rate : 1 520 kb/s
Width : 1 280 pixels
Height : 536 pixels
Display aspect ratio : 2.40:1
Frame rate mode : Constant
Frame rate : 25.000 FPS
Color space : YUV
Chroma subsampling : 4:2:0
Bit depth : 8 bits
Scan type : Progressive
Bits/(Pixel*Frame) : 0.098
Stream size : 1.29 GiB (94%)
Writing library : x264 core 148 r2638 7599210
Encoding settings : cabac=1 / ref=3 / deblock=1:0:0 / analyse=0x3:0x113 / me=hex / subme=7 / psy=1 / psy_rd=1.00:0.00 / mixed_ref=1 / me_range=16 / chroma_me=1 / trellis=1 / 8x8dct=1 / cqm=0 / deadzone=21,11 / fast_pskip=1 / chroma_qp_offset=-2 / threads=17 / lookahead_threads=2 / sliced_threads=0 / nr=0 / decimate=1 / interlaced=0 / bluray_compat=0 / constrained_intra=0 / bframes=3 / b_pyramid=2 / b_adapt=1 / b_bias=0 / direct=1 / weightb=1 / open_gop=0 / weightp=2 / keyint=250 / keyint_min=25 / scenecut=40 / intra_refresh=0 / rc_lookahead=40 / rc=2pass / mbtree=1 / bitrate=1520 / ratetol=1.0 / qcomp=0.60 / qpmin=0 / qpmax=69 / qpstep=4 / cplxblur=20.0 / qblur=0.5 / ip_ratio=1.40 / aq=1:1.00
Language : Telugu
Default : Yes
Forced : No

Audio
ID : 2
Format : MPEG Audio
Format version : Version 1
Format profile : Layer 3
Mode : Joint stereo
Mode extension : MS Stereo
Codec ID : A_MPEG/L3
Codec ID/Hint : MP3
Duration : 1 h 49 min
Bit rate mode : Variable
Bit rate : 96.0 kb/s
Channel(s) : 2 channels
Sampling rate : 48.0 kHz
Frame rate : 41.667 FPS (1152 spf)
Compression mode : Lossy
Stream size : 75.5 MiB (5%)
Writing library : LAME3.99r
Encoding settings : -m j -V 4 -q 3 -lowpass 15.1 --abr 96
Language : Telugu
Default : Yes
Forced : No



https://extraimage.net/images/2017/04/05/8a768d10f6dacb007655f4a457c477a2.jpghttps://extraimage.net/images/2017/04/05/edabbb3d19c0ee6e030b839c330899a5.jpghttps://extraimage.net/images/2017/04/05/09613be2b62b621c330214e120bbddbe.jpg

SINGLE DIRECT FAST LINKS



http://www.heroupload.com/6f8007236f01e5ad/Guru_(2017)_Telugu.mkv