PDA

View Full Version : Krishnashtami (2016) Telugu - 700MB - 1CDRip - HDTV-Rip - XviD - MP3-TMV



wroser
04-03-2017, 04:17 AM
http://i.imgur.com/5gHcs36.jpg







General
Format : AVI
Format/Info : Audio Video Interleave
File size : 700 MiB
Duration : 2 h 16 min
Overall bit rate mode : Variable
Overall bit rate : 715 kb/s

Video
ID : 0
Format : MPEG-4 Visual
Format profile : Advanced Simple@L5
Format settings, BVOP : 2
Format settings, QPel : No
Format settings, GMC : No warppoints
Format settings, Matrix : Default (H.263)
Codec ID : XVID
Codec ID/Hint : XviD
Duration : 2 h 16 min
Bit rate : 607 kb/s
Width : 704 pixels
Height : 304 pixels
Display aspect ratio : 2.35:1
Frame rate : 25.000 FPS
Color space : YUV
Chroma subsampling : 4:2:0
Bit depth : 8 bits
Scan type : Progressive
Compression mode : Lossy
Bits/(Pixel*Frame) : 0.113
Stream size : 595 MiB (85%)
Writing library : XviD 67

Audio
ID : 1
Format : MPEG Audio
Format version : Version 1
Format profile : Layer 3
Mode : Joint stereo
Mode extension : MS Stereo
Codec ID : 55
Codec ID/Hint : MP3
Duration : 2 h 16 min
Bit rate mode : Variable
Bit rate : 96.0 kb/s
Channel(s) : 2 channels
Sampling rate : 44.1 kHz
Compression mode : Lossy
Stream size : 93.3 MiB (13%)
Alignment : Aligned on interleaves
Interleave, duration : 26 ms (0.65 video frame)
Interleave, preload duration : 166 ms
Writing library : LAME3.99r
Encoding settings : -m j -V 4 -q 3 -lowpass 15.1 --abr 96


https://extraimage.net/images/2017/04/02/ca2d32f94ee3ca7cb229024a068e83ad.pnghttps://extraimage.net/images/2017/04/02/2334f8b9de95d0d18c8cc5fcc1a47436.pnghttps://extraimage.net/images/2017/04/02/b80fd4724b8b761c4a12f7a4fc0b4ba2.pnghttps://extraimage.net/images/2017/04/02/995fe8ca61834d42b9d9bdf37387fa6e.png


SINGLE DIRECT FAST LINKS



http://www.heroupload.com/e9b020d06d41330c/Krishnashtami.2016.Telugu.HDTV-Rip.XviD.700MB.MP3-TMV.avi