PDA

View Full Version : Ghazi (2017) Telugu - 700MB - 1CDRip - HDRip - XviD - MP3-TMV



wroser
04-02-2017, 02:44 AM
http://i.imgur.com/JQFtYJU.jpg





General
Format : AVI
Format/Info : Audio Video Interleave
File size : 694 MiB
Duration : 1 h 58 min
Overall bit rate mode : Variable
Overall bit rate : 820 kb/s

Video
ID : 0
Format : MPEG-4 Visual
Format profile : Advanced Simple@L5
Format settings, BVOP : 2
Format settings, QPel : No
Format settings, GMC : No warppoints
Format settings, Matrix : Default (H.263)
Codec ID : XVID
Codec ID/Hint : XviD
Duration : 1 h 58 min
Bit rate : 712 kb/s
Width : 704 pixels
Height : 304 pixels
Display aspect ratio : 2.35:1
Frame rate : 23.976 (24000/1001) FPS
Color space : YUV
Chroma subsampling : 4:2:0
Bit depth : 8 bits
Scan type : Progressive
Compression mode : Lossy
Bits/(Pixel*Frame) : 0.139
Stream size : 603 MiB (87%)
Writing library : XviD 67

Audio
ID : 1
Format : MPEG Audio
Format version : Version 1
Format profile : Layer 3
Mode : Joint stereo
Mode extension : MS Stereo
Codec ID : 55
Codec ID/Hint : MP3
Duration : 1 h 58 min
Bit rate mode : Variable
Bit rate : 96.0 kb/s
Channel(s) : 2 channels
Sampling rate : 48.0 kHz
Compression mode : Lossy
Stream size : 80.5 MiB (12%)
Alignment : Aligned on interleaves
Interleave, duration : 24 ms (0.58 video frame)
Interleave, preload duration : 88 ms
Writing library : LAME3.99r
Encoding settings : -m j -V 4 -q 3 -lowpass 15.1 --abr 96



https://extraimage.net/images/2017/04/01/4ce74010000809a374285706e0811642.png
https://extraimage.net/images/2017/04/01/86a4be9c0f69cf18ca515490db7c6910.pnghttps://extraimage.net/images/2017/04/01/b863aba732b8940ce7b3ec47433a94ad.pnghttps://extraimage.net/images/2017/04/01/4133c264d1906c455d85f4e3005e8351.png


SINGLE DIRECT FAST LINKS



http://www.heroupload.com/60ed7d438afcac6f/Ghazi.2017.Telugu.HDRip.XviD.700MB.MP3-TMV.avi