PDA

View Full Version : GautamiPutra Satakarni (2017) Telugu - 1080p - WEB-HD - AVC - AAC - [WR-Exclusive]



wroser
03-27-2017, 08:07 AM
http://i.imgur.com/7sOnTq9.jpg





General
Format : MPEG-4
Format profile : Base Media
Codec ID : isom (isom/iso2/avc1/mp41)
File size : 5.45 GiB
Duration : 2 h 7 min
Overall bit rate mode : Variable
Overall bit rate : 6 132 kb/s
Writing application : Lavf57.66.105

Video
ID : 1
Format : AVC
Format/Info : Advanced Video Codec
Format profile : High@L4.1
Format settings, CABAC : Yes
Format settings, ReFrames : 1 frame
Format settings, GOP : M=1, N=25
Codec ID : avc1
Codec ID/Info : Advanced Video Coding
Duration : 2 h 7 min
Bit rate mode : Constant
Bit rate : 6 000 kb/s
Width : 1 920 pixels
Height : 1 080 pixels
Display aspect ratio : 16:9
Frame rate mode : Constant
Frame rate : 25.000 FPS
Color space : YUV
Chroma subsampling : 4:2:0
Bit depth : 8 bits
Scan type : Progressive
Bits/(Pixel*Frame) : 0.116
Stream size : 5.33 GiB (98%)

Audio
ID : 2
Format : AAC
Format/Info : Advanced Audio Codec
Format profile : LC
Codec ID : 40
Duration : 2 h 7 min
Bit rate mode : Variable
Bit rate : 125 kb/s
Maximum bit rate : 144 kb/s
Channel(s) : 2 channels
Channel positions : Front: L R
Sampling rate : 48.0 kHz
Frame rate : 46.875 FPS (1024 spf)
Compression mode : Lossy
Stream size : 114 MiB (2%)
Default : Yes
Alternate group : 1



https://extraimage.net/images/2017/03/27/fbaacfbad16bf9fe6ef326762cc958d0.pnghttps://extraimage.net/images/2017/03/27/2dc80e665387988f448c0c84180c923b.pnghttps://extraimage.net/images/2017/03/27/f47aa8bcd731b46aa062aa086d8f8507.pnghttps://extraimage.net/images/2017/03/27/c9d72c53820fdfde922924c9dcc4103f.pnghttps://extraimage.net/images/2017/03/27/afa2d7a8bd236d0454fb4beb539adee6.png


SINGLE DIRECT FAST LINKS


http://www.heroupload.com/d0ae383b8007c5b2/GautamiPutra.Satakarni.2017.Telugu.WEB-HD.1080p.AVC.AAC-WarezRock.mp4

1GB LINKS



http://www.heroupload.com/ea352424f75c5f04/GautamiPutra.Satakarni.2017.Telugu.WEB-HD.1080p.AVC.AAC-WarezRock.mp4.001
http://www.heroupload.com/4be374c6e64a648b/GautamiPutra.Satakarni.2017.Telugu.WEB-HD.1080p.AVC.AAC-WarezRock.mp4.002
http://www.heroupload.com/aaaf5b7130943297/GautamiPutra.Satakarni.2017.Telugu.WEB-HD.1080p.AVC.AAC-WarezRock.mp4.003
http://www.heroupload.com/ddea58b78b27ee7e/GautamiPutra.Satakarni.2017.Telugu.WEB-HD.1080p.AVC.AAC-WarezRock.mp4.004
http://www.heroupload.com/a77044d3bc0dab97/GautamiPutra.Satakarni.2017.Telugu.WEB-HD.1080p.AVC.AAC-WarezRock.mp4.005
http://www.heroupload.com/fceead42dc035dd4/GautamiPutra.Satakarni.2017.Telugu.WEB-HD.1080p.AVC.AAC-WarezRock.mp4.006