PDA

View Full Version : GautamiPutra Satakarni (2017) Telugu - 720p - WEB-HD - AVC - AAC - [WR-Exclusive]



wroser
03-27-2017, 08:01 AM
http://i.imgur.com/k1LhW1q.jpg





General
Format : MPEG-4
Format profile : Base Media
Codec ID : isom (isom/iso2/avc1/mp41)
File size : 1.89 GiB
Duration : 2 h 7 min
Overall bit rate mode : Variable
Overall bit rate : 2 130 kb/s
Writing application : Lavf57.66.105

Video
ID : 1
Format : AVC
Format/Info : Advanced Video Codec
Format profile : Main@L3.1
Format settings, CABAC : Yes
Format settings, ReFrames : 1 frame
Format settings, GOP : M=1, N=25
Codec ID : avc1
Codec ID/Info : Advanced Video Coding
Duration : 2 h 7 min
Bit rate mode : Constant
Bit rate : 2 000 kb/s
Width : 1 280 pixels
Height : 720 pixels
Display aspect ratio : 16:9
Frame rate mode : Constant
Frame rate : 25.000 FPS
Color space : YUV
Chroma subsampling : 4:2:0
Bit depth : 8 bits
Scan type : Progressive
Bits/(Pixel*Frame) : 0.087
Stream size : 1.78 GiB (94%)

Audio
ID : 2
Format : AAC
Format/Info : Advanced Audio Codec
Format profile : LC
Codec ID : 40
Duration : 2 h 7 min
Bit rate mode : Variable
Bit rate : 125 kb/s
Maximum bit rate : 144 kb/s
Channel(s) : 2 channels
Channel positions : Front: L R
Sampling rate : 48.0 kHz
Frame rate : 46.875 FPS (1024 spf)
Compression mode : Lossy
Stream size : 114 MiB (6%)
Default : Yes
Alternate group : 1



https://extraimage.net/images/2017/03/27/f9da2d34e090e3e9231b63f8e62f6e11.pnghttps://extraimage.net/images/2017/03/27/3e2fe955d39f156f4ee6f00b372d85d3.pnghttps://extraimage.net/images/2017/03/27/654bcfceca4efb320d716c19df5f100d.pnghttps://extraimage.net/images/2017/03/27/4919c58eb0671e232ea26d47e685cfde.png


SINGLE DIRECT FAST LINKS



http://www.heroupload.com/b5a8541f272433ec/GautamiPutra.Satakarni.2017.Telugu.WEB-HD.720p.AVC.AAC-WarezRock.mp4