PDA

View Full Version : Shatamanam Bhavati (2017) Telugu - 700MB - SDTV - x264 - AAC - WR Exclusive



wroser
03-26-2017, 05:29 PM
http://i.imgur.com/2CRKWi9.jpg





General
Format : MPEG-4
Format profile : Base Media
Codec ID : isom (isom/iso2/avc1/mp41)
File size : 715 MiB
Duration : 2 h 11 min
Overall bit rate : 759 kb/s
Writing application : Lavf55.19.104

Video
ID : 1
Format : AVC
Format/Info : Advanced Video Codec
Format profile : Main@L3.1
Format settings, CABAC : Yes
Format settings, ReFrames : 2 frames
Format settings, GOP : M=4, N=25
Codec ID : avc1
Codec ID/Info : Advanced Video Coding
Duration : 2 h 11 min
Bit rate : 691 kb/s
Width : 640 pixels
Height : 480 pixels
Display aspect ratio : 4:3
Frame rate mode : Constant
Frame rate : 25.000 FPS
Color space : YUV
Chroma subsampling : 4:2:0
Bit depth : 8 bits
Scan type : Progressive
Bits/(Pixel*Frame) : 0.090
Stream size : 651 MiB (91%)

Audio
ID : 2
Format : AAC
Format/Info : Advanced Audio Codec
Format profile : LC
Codec ID : 40
Duration : 2 h 11 min
Bit rate mode : Constant
Bit rate : 64.0 kb/s
Channel(s) : 2 channels
Channel positions : Front: L R
Sampling rate : 48.0 kHz
Frame rate : 46.875 FPS (1024 spf)
Compression mode : Lossy
Stream size : 60.3 MiB (8%)
Default : Yes
Alternate group : 1


https://extraimage.net/images/2017/03/26/b3890b3c54341dc0224e616eb9528659.png
https://extraimage.net/images/2017/03/26/1c67f3963effcf5a30b86c050ac82394.pnghttps://extraimage.net/images/2017/03/26/dfc41773565b45190cd111209f79a15a.pnghttps://extraimage.net/images/2017/03/26/a1ff10b1defee6b8f5208c0457fdffc8.pnghttps://extraimage.net/images/2017/03/26/9454083f4a4711a51239a8b44645ccd3.pnghttps://extraimage.net/images/2017/03/26/e7ad026c4df8e6deaa59fb191c57daae.png

SINGLE DIRECT FAST LINKS


http://www.heroupload.com/e5a95d48b398e830/Sathamanam.Bhavati.2017.Telugu.SDTV.UNTOUCHED.MP4. AAC.700MB.mp4