PDA

View Full Version : Nagaram (2017) Telugu - 720p - PreDVD - x264 - MP3 - TMV



wroser
03-12-2017, 10:28 PM
http://i.imgur.com/KBWvIxc.jpg








General
Format : Matroska
Format version : Version 4 / Version 2
File size : 1.36 GiB
Duration : 2 h 14 min
Overall bit rate mode : Variable
Overall bit rate : 1 452 kb/s
Encoded date : UTC 2017-03-11 14:09:01
Writing application : mkvmerge v7.0.0 ('Where We Going') 32bit built on Jun 9 2014 15:08:34
Writing library : libebml v1.3.0 + libmatroska v1.4.1

Video
ID : 1
Format : AVC
Format/Info : Advanced Video Codec
Format profile : High@L3.1
Format settings, CABAC : Yes
Format settings, ReFrames : 4 frames
Codec ID : V_MPEG4/ISO/AVC
Duration : 2 h 14 min
Bit rate : 1 360 kb/s
Nominal bit rate : 1 272 kb/s
Width : 1 280 pixels
Height : 544 pixels
Display aspect ratio : 2.35:1
Frame rate mode : Constant
Frame rate : 25.000 FPS
Color space : YUV
Chroma subsampling : 4:2:0
Bit depth : 8 bits
Scan type : Progressive
Bits/(Pixel*Frame) : 0.078
Stream size : 1.28 GiB (94%)
Writing library : x264 core 148 r2638 7599210
Encoding settings : cabac=1 / ref=3 / deblock=1:0:0 / analyse=0x3:0x113 / me=hex / subme=7 / psy=1 / psy_rd=1.00:0.00 / mixed_ref=1 / me_range=16 / chroma_me=1 / trellis=1 / 8x8dct=1 / cqm=0 / deadzone=21,11 / fast_pskip=1 / chroma_qp_offset=-2 / threads=17 / lookahead_threads=2 / sliced_threads=0 / nr=0 / decimate=1 / interlaced=0 / bluray_compat=0 / constrained_intra=0 / bframes=3 / b_pyramid=2 / b_adapt=1 / b_bias=0 / direct=1 / weightb=1 / open_gop=0 / weightp=2 / keyint=250 / keyint_min=25 / scenecut=40 / intra_refresh=0 / rc_lookahead=40 / rc=2pass / mbtree=1 / bitrate=1272 / ratetol=1.0 / qcomp=0.60 / qpmin=0 / qpmax=69 / qpstep=4 / cplxblur=20.0 / qblur=0.5 / ip_ratio=1.40 / aq=1:1.00
Language : Tamil
Default : Yes
Forced : No

Audio
ID : 2
Format : MPEG Audio
Format version : Version 1
Format profile : Layer 3
Mode : Joint stereo
Mode extension : MS Stereo
Codec ID : A_MPEG/L3
Codec ID/Hint : MP3
Duration : 2 h 14 min
Bit rate mode : Variable
Bit rate : 89.5 kb/s
Nominal bit rate : 96.0 kb/s
Channel(s) : 2 channels
Sampling rate : 48.0 kHz
Frame rate : 41.667 FPS (1152 spf)
Compression mode : Lossy
Stream size : 86.0 MiB (6%)
Writing library : LAME3.99r
Encoding settings : -m j -V 4 -q 3 -lowpass 15.1 --abr 96
Language : Telugu
Default : Yes
Forced : No




https://extraimage.net/images/2017/03/10/28b79bb58d5a97eb81abd3c374b0f46c.jpg
https://extraimage.net/images/2017/03/10/c97375d5c31fd661727ac4a52f20516a.jpg
https://extraimage.net/images/2017/03/10/6ded420e8a5b993b629c635d27cf6742.jpg
https://extraimage.net/images/2017/03/10/ee1c6043471dc3cf828b0884d0f12dba.jpg
https://extraimage.net/images/2017/03/10/578575b74f465d523bc32d4d8d13144c.jpg





SINGLE DIRECT FAST LINKS



http://www.heroupload.com/c1506371e9c7dfa1/Nagaram.2017.Telugu.PreDVD.720p.1.4GB.x264.Line.Au dio.MP3-TMV.mkv