PDA

View Full Version : Yamudu 3 (2017) Telugu - 720p - HDRip - x264 - MP3 (DVDScr Audio) - HC-ESub - TMV



wroser
03-11-2017, 12:31 PM
http://i.imgur.com/W5JlYT0.jpg




General
Format : Matroska
Format version : Version 4 / Version 2
File size : 1.26 GiB
Duration : 2 h 31 min
Overall bit rate mode : Variable
Overall bit rate : 1 183 kb/s
Encoded date : UTC 2017-03-11 07:00:04
Writing application : mkvmerge v7.0.0 ('Where We Going') 32bit built on Jun 9 2014 15:08:34
Writing library : libebml v1.3.0 + libmatroska v1.4.1

Video
ID : 1
Format : AVC
Format/Info : Advanced Video Codec
Format profile : High@L3.1
Format settings, CABAC : Yes
Format settings, ReFrames : 4 frames
Codec ID : V_MPEG4/ISO/AVC
Duration : 2 h 31 min
Bit rate : 1 090 kb/s
Width : 1 280 pixels
Height : 560 pixels
Display aspect ratio : 2.25:1
Frame rate mode : Constant
Frame rate : 29.970 (30000/1001) FPS
Color space : YUV
Chroma subsampling : 4:2:0
Bit depth : 8 bits
Scan type : Progressive
Bits/(Pixel*Frame) : 0.051
Stream size : 1.16 GiB (92%)
Writing library : x264 core 148 r2638 7599210
Encoding settings : cabac=1 / ref=3 / deblock=1:0:0 / analyse=0x3:0x113 / me=hex / subme=7 / psy=1 / psy_rd=1.00:0.00 / mixed_ref=1 / me_range=16 / chroma_me=1 / trellis=1 / 8x8dct=1 / cqm=0 / deadzone=21,11 / fast_pskip=1 / chroma_qp_offset=-2 / threads=17 / lookahead_threads=2 / sliced_threads=0 / nr=0 / decimate=1 / interlaced=0 / bluray_compat=0 / constrained_intra=0 / bframes=3 / b_pyramid=2 / b_adapt=1 / b_bias=0 / direct=1 / weightb=1 / open_gop=0 / weightp=2 / keyint=300 / keyint_min=29 / scenecut=40 / intra_refresh=0 / rc_lookahead=40 / rc=2pass / mbtree=1 / bitrate=1090 / ratetol=1.0 / qcomp=0.60 / qpmin=0 / qpmax=69 / qpstep=4 / cplxblur=20.0 / qblur=0.5 / ip_ratio=1.40 / aq=1:1.00
Language : Tamil
Default : Yes
Forced : No

Audio
ID : 2
Format : MPEG Audio
Format version : Version 1
Format profile : Layer 3
Mode : Joint stereo
Mode extension : MS Stereo
Codec ID : A_MPEG/L3
Codec ID/Hint : MP3
Duration : 2 h 31 min
Bit rate mode : Variable
Bit rate : 90.1 kb/s
Nominal bit rate : 96.0 kb/s
Channel(s) : 2 channels
Sampling rate : 48.0 kHz
Frame rate : 41.667 FPS (1152 spf)
Compression mode : Lossy
Stream size : 98.0 MiB (8%)
Writing library : LAME3.99r
Encoding settings : -m j -V 4 -q 3 -lowpass 15.1 --abr 96
Language : Telugu
Default : Yes
Forced : No




https://extraimage.net/images/2017/03/11/185be71bcc45492cc6fdeec6232421e8.png
https://extraimage.net/images/2017/03/11/f067c878057c01bf5943f801d08dacd6.png
https://extraimage.net/images/2017/03/11/33d92cb76085104d41338b5cdf75dd28.png
https://extraimage.net/images/2017/03/11/12be48b2ddd4618f1d486c5014f3cda7.png
SINGLE LINKS



http://www.heroupload.com/b02398ae0efdde2b/Yamudu.3.2017.HDRip.720p.x264.Telugu.DVDScr.Audio. MP3.1.2GB.HC-ESub-TMV.mkv